<?xml version="1.0" standalone="no"?>
<!DOCTYPE svg PUBLIC "-//W3C//DTD SVG 1.1//EN" "http://www.w3.org/Graphics/SVG/1.1/DTD/svg11.dtd" >
<svg xmlns="http://www.w3.org/2000/svg" xmlns:xlink="http://www.w3.org/1999/xlink" version="1.1">
<metadata></metadata>
<defs>
<font id="simplon_bpmedium" horiz-adv-x="598" >
<font-face units-per-em="2048" ascent="1671" descent="-377" />
<missing-glyph horiz-adv-x="448" />
<glyph unicode="&#xfb01;" horiz-adv-x="1183" d="M45 854h150v-854h215v854h260v203h-260v69q0 57 17 79t81 22h162v207h-224q-131 0 -191 -64.5t-60 -187.5v-125h-150v-203zM827 0h215v1057h-215v-1057zM827 1214h215v220h-215v-220z" />
<glyph unicode="&#xfb02;" horiz-adv-x="1243" d="M45 854h150v-854h215v854h260v203h-260v69q0 57 17 79t81 22h162v207h-224q-131 0 -191 -64.5t-60 -187.5v-125h-150v-203zM823 252v1182h215v-1127q0 -57 17.5 -78.5t81.5 -21.5h32v-207h-94q-131 0 -191.5 64.5t-60.5 187.5z" />
<glyph unicode="&#xfb03;" horiz-adv-x="1869" d="M45 854h150v-854h215v854h260v203h-260v69q0 57 17 79t81 22h162v207h-224q-131 0 -191 -64.5t-60 -187.5v-125h-150v-203zM731 854h150v-854h215v854h260v203h-260v69q0 57 17 79t81 22h162v207h-223q-131 0 -191.5 -64.5t-60.5 -187.5v-125h-150v-203zM1513 0h216v1057 h-216v-1057zM1513 1214h216v220h-216v-220z" />
<glyph unicode="&#xfb04;" horiz-adv-x="1929" d="M45 854h150v-854h215v854h260v203h-260v69q0 57 17 79t81 22h162v207h-224q-131 0 -191 -64.5t-60 -187.5v-125h-150v-203zM731 854h150v-854h215v854h260v203h-260v69q0 57 17 79t81 22h162v207h-223q-131 0 -191.5 -64.5t-60.5 -187.5v-125h-150v-203zM1509 252v1182 h215v-1127q0 -57 17.5 -78.5t81.5 -21.5h32v-207h-94q-131 0 -191.5 64.5t-60.5 187.5z" />
<glyph horiz-adv-x="0" />
<glyph horiz-adv-x="682" />
<glyph unicode=" "  horiz-adv-x="448" />
<glyph unicode="&#x09;" horiz-adv-x="448" />
<glyph unicode="&#xa0;" horiz-adv-x="448" />
<glyph unicode="!" d="M162 0h274v274h-274v-274zM190 430h216v1004h-216v-1004z" />
<glyph unicode="&#x22;" horiz-adv-x="948" d="M152 975h215v459h-215v-459zM582 975h215v459h-215v-459z" />
<glyph unicode="#" horiz-adv-x="1433" d="M137 395h135l-98 -395h205l98 395h320l-99 -395h205l98 395h230v187h-184l67 270h182v186h-135l99 396h-205l-99 -396h-319l98 396h-205l-98 -396h-229v-186h182l-68 -270h-180v-187zM522 582l68 270h319l-67 -270h-320z" />
<glyph unicode="$" horiz-adv-x="1058" d="M72 444q6 -188 114.5 -318t302.5 -144v-187h89v187q201 10 299 117.5t98 273.5q0 141 -64.5 244.5t-226.5 166.5l-106 41v418q70 -14 109.5 -65.5t49.5 -126.5h215q-12 168 -110.5 277.5t-263.5 123.5v186h-89v-186q-172 -10 -283.5 -111.5t-111.5 -279.5q0 -154 80 -250 t215 -147l100 -39v-437q-90 14 -143 82t-59 174h-215zM309 1061q0 72 45 123t135 61v-385l-16 6q-68 27 -116 70t-48 125zM578 188v402l6 -2q102 -39 139 -95.5t37 -119.5q0 -76 -47 -126t-135 -59z" />
<glyph unicode="%" horiz-adv-x="1794" d="M127 887q0 -115 61.5 -206t221.5 -91t221 91t61 206v262q0 115 -61.5 206t-220.5 91q-160 0 -221.5 -91t-61.5 -206v-262zM301 854v328q0 45 26.5 77.5t82.5 32.5q55 0 81.5 -32.5t26.5 -77.5v-328q0 -45 -26.5 -78t-81.5 -33t-82 33t-27 78zM307 0h195l985 1434h-195z M1100 285q0 -115 61.5 -206t220.5 -91q160 0 221.5 91t61.5 206v262q0 115 -61.5 206t-221.5 91t-221 -91t-61 -206v-262zM1274 252v328q0 45 26.5 77.5t81.5 32.5t82 -32.5t27 -77.5v-328q0 -45 -26.5 -78t-82.5 -33q-55 0 -81.5 33t-26.5 78z" />
<glyph unicode="&#x26;" horiz-adv-x="1234" d="M98 410q0 -227 143.5 -318.5t288.5 -91.5h449v612h252v207h-252v164h-215v-164h-225q-104 0 -165 54.5t-61 148.5q0 98 62.5 151.5t163.5 53.5h225v207h-225q-137 0 -289 -87t-152 -325q0 -100 47.5 -183t122.5 -122q-78 -41 -124 -124t-46 -183zM313 410q0 96 58.5 149 t158.5 53h234v-405h-234q-100 0 -158.5 53t-58.5 150z" />
<glyph unicode="'" horiz-adv-x="518" d="M152 975h215v459h-215v-459z" />
<glyph unicode="(" d="M184 -43v1225q0 123 60.5 187.5t191.5 64.5h94v-193h-49q-61 0 -81.5 -23.5t-20.5 -80.5v-1135q0 -57 20.5 -80.5t81.5 -23.5h49v-193h-94q-131 0 -191.5 64.5t-60.5 187.5z" />
<glyph unicode=")" d="M68 -102v-193h94q131 0 191.5 64.5t60.5 187.5v1225q0 123 -60.5 187.5t-191.5 64.5h-94v-193h49q61 0 81.5 -23.5t20.5 -80.5v-1135q0 -57 -20.5 -80.5t-81.5 -23.5h-49z" />
<glyph unicode="*" horiz-adv-x="1034" d="M125 1081l57 176l242 -77v254h186v-254l242 77l57 -176l-241 -77l149 -207l-149 -109l-150 205l-151 -205l-150 109l150 207z" />
<glyph unicode="+" horiz-adv-x="1142" d="M131 481h348v-348h187v348h346v187h-346v346h-187v-346h-348v-187z" />
<glyph unicode="," d="M162 0h112l-79 -213h161l80 213v274h-274v-274z" />
<glyph unicode="-" horiz-adv-x="794" d="M100 481h594v187h-594v-187z" />
<glyph unicode="." d="M162 0h274v274h-274v-274z" />
<glyph unicode="/" horiz-adv-x="747" d="M-23 0h213l580 1434h-213z" />
<glyph unicode="0" horiz-adv-x="1118" d="M119 418q0 -260 151.5 -349t288.5 -89t288.5 89t151.5 349v598q0 260 -151.5 349t-288.5 89t-288.5 -89t-151.5 -349v-598zM334 422v590q0 119 62.5 177t162.5 58t162.5 -58.5t62.5 -176.5v-590q0 -119 -62.5 -177.5t-162.5 -58.5t-162.5 58.5t-62.5 177.5z" />
<glyph unicode="1" horiz-adv-x="735" d="M84 930l274 235v-1165h215v1434h-215l-274 -236v-268z" />
<glyph unicode="2" horiz-adv-x="1062" d="M86 0h881v207h-588l383 397q104 106 154.5 202.5t50.5 225.5q0 250 -151.5 336t-289.5 86q-137 0 -288.5 -89t-151.5 -349v-23h215v19q0 119 62.5 177t162.5 58t163 -54t63 -165q0 -80 -40 -146.5t-112 -142.5l-514 -532v-207z" />
<glyph unicode="3" horiz-adv-x="1075" d="M84 408v2h215v-2q2 -111 69.5 -166.5t163.5 -55.5t157 52.5t61 156.5q0 100 -64.5 160.5t-161.5 60.5h-118v199h118q104 0 165 57.5t61 151.5q0 98 -62.5 160.5t-163.5 62.5q-96 0 -159.5 -55t-65.5 -166v-2h-215v2q4 250 154.5 339t285.5 89q137 0 289 -96t152 -334 q0 -100 -47.5 -184t-122.5 -123q78 -41 124 -131t46 -191q0 -227 -136.5 -321t-289.5 -94q-143 0 -298 87t-157 341z" />
<glyph unicode="4" horiz-adv-x="1064" d="M18 354h637v-354h215v354h150v199h-150v881h-215l-637 -881v-199zM268 553l387 534v-534h-387z" />
<glyph unicode="5" horiz-adv-x="1077" d="M119 408q4 -254 157.5 -341t296.5 -87q154 0 290 94t136 321v90q0 260 -146 349.5t-271 89.5q-63 0 -130 -20.5t-100 -53.5v377h592v207h-807v-844h215q25 63 79 95t128 32q100 0 162.5 -58.5t62.5 -177.5v-86q0 -104 -60 -156.5t-157 -52.5q-96 0 -163.5 55.5 t-69.5 166.5v2h-215v-2z" />
<glyph unicode="6" horiz-adv-x="1105" d="M119 418q0 -260 151.5 -349t288.5 -89t288.5 89t151.5 349v53q0 260 -151.5 349t-274.5 89q-70 0 -135 -20.5t-104 -52.5v176q0 119 62.5 177t162.5 58q96 0 159.5 -55t65.5 -166v-2h215v2q-2 254 -153.5 341t-286.5 87q-137 0 -288.5 -89t-151.5 -349v-598zM334 422v45 q0 119 62.5 177t162.5 58t162.5 -58t62.5 -177v-45q0 -119 -62.5 -177.5t-162.5 -58.5t-162.5 58.5t-62.5 177.5z" />
<glyph unicode="7" horiz-adv-x="929" d="M25 1227h641l-443 -1227h228l442 1227v207h-868v-207z" />
<glyph unicode="8" horiz-adv-x="1101" d="M111 401q0 109 39.5 186t111.5 134q-70 61 -103.5 136t-33.5 179q0 238 145.5 328t280.5 90t280.5 -90t145.5 -328q0 -104 -34 -179t-103 -136q72 -57 111.5 -134t39.5 -186q0 -238 -152.5 -329.5t-287.5 -91.5t-287.5 92t-152.5 329zM326 408q0 -111 64.5 -165.5 t160.5 -54.5t160.5 54.5t64.5 165.5q0 102 -64.5 160.5t-160.5 58.5t-160.5 -57.5t-64.5 -161.5zM340 1032q0 -102 59.5 -158.5t147.5 -56.5q90 0 152.5 56.5t62.5 158.5t-62.5 158.5t-152.5 56.5q-88 0 -147.5 -56t-59.5 -159z" />
<glyph unicode="9" horiz-adv-x="1105" d="M106 408q2 -254 154 -341t287 -87q137 0 288.5 89t151.5 349v598q0 260 -151.5 349t-288.5 89t-289 -89t-152 -349v-53q0 -260 152 -349.5t274 -89.5q70 0 135.5 20.5t104.5 53.5v-176q0 -119 -62.5 -177.5t-162.5 -58.5q-96 0 -159.5 55.5t-65.5 166.5v2h-216v-2z M322 967v45q0 119 62 177t163 58q100 0 162.5 -58.5t62.5 -176.5v-45q0 -119 -62.5 -177.5t-162.5 -58.5t-162.5 58.5t-62.5 177.5z" />
<glyph unicode=":" d="M162 0h274v274h-274v-274zM162 782h274v275h-274v-275z" />
<glyph unicode=";" d="M162 0h112l-79 -213h161l80 213v274h-274v-274zM162 782h274v275h-274v-275z" />
<glyph unicode="&#x3c;" horiz-adv-x="1142" d="M131 420l881 -430v209l-680 331l680 332v209l-881 -430v-221z" />
<glyph unicode="=" horiz-adv-x="1142" d="M131 244v186h881v-186h-881zM131 696v187h881v-187h-881z" />
<glyph unicode="&#x3e;" horiz-adv-x="1142" d="M131 -10v209l680 331l-680 332v209l881 -430v-221z" />
<glyph unicode="?" horiz-adv-x="1056" d="M74 1024h215v2q2 111 65.5 166t159.5 55q100 0 162.5 -58.5t62.5 -176.5q0 -66 -35.5 -118t-74.5 -89l-107 -98q-76 -68 -100.5 -115t-24.5 -117v-45h215v25q0 35 13.5 57.5t50.5 54.5l106 99q72 66 122 155.5t50 194.5q0 260 -151.5 349t-288.5 89q-135 0 -286.5 -88 t-153.5 -340v-2zM369 0h274v274h-274v-274z" />
<glyph unicode="@" horiz-adv-x="1875" d="M131 412q0 -479 276.5 -644t530.5 -165q117 0 248 29.5t244 105.5l-103 170q-88 -63 -191.5 -88t-197.5 -25q-193 0 -402.5 123t-209.5 488v245q0 365 209.5 488t402.5 123t402.5 -123t209.5 -488v-387q0 -45 -26.5 -68.5t-59.5 -23.5t-59.5 23.5t-26.5 68.5v383 q0 260 -151.5 349t-288.5 89q-127 0 -267.5 -73.5t-166.5 -282.5h219q20 76 77.5 113t137.5 37q94 0 154.5 -51.5t68.5 -155.5q-133 -8 -241.5 -20.5t-202.5 -41.5q-131 -41 -180.5 -134t-49.5 -183q0 -162 109 -237.5t252 -75.5q104 0 184 29.5t131 90.5q43 -51 119 -85.5 t186 -34.5q141 0 209 79.5t68 198.5v387q0 479 -276.5 644t-530.5 165t-530.5 -165t-276.5 -644v-233zM702 311q0 39 15.5 62.5t36.5 36.5q57 35 162.5 49t246.5 22v-59q0 -147 -94 -191.5t-186 -44.5q-86 0 -133.5 31t-47.5 94z" />
<glyph unicode="A" horiz-adv-x="1261" d="M16 0h226l120 346h537l121 -346h225l-502 1434h-225zM432 549l199 569l198 -569h-397z" />
<glyph unicode="B" horiz-adv-x="1263" d="M152 0h587q213 0 327 111.5t114 302.5q0 94 -42 179t-134 140q70 49 105.5 125t35.5 166q0 184 -113.5 297t-326.5 113h-553v-1434zM371 217v397h368q100 0 158.5 -50t58.5 -148t-58 -148.5t-159 -50.5h-368zM371 831v386h334q100 0 158.5 -49.5t58.5 -143.5 t-58.5 -143.5t-158.5 -49.5h-334z" />
<glyph unicode="C" horiz-adv-x="1222" d="M109 485q0 -231 142 -368t372 -137q219 0 358 125.5t154 338.5h-220q-14 -129 -103 -188t-189 -59q-106 0 -200.5 69.5t-94.5 218.5v463q0 150 94 219.5t201 69.5q100 0 189 -59.5t103 -188.5h220q-12 213 -152.5 339t-359.5 126q-229 0 -371.5 -137t-142.5 -369v-463z " />
<glyph unicode="D" horiz-adv-x="1288" d="M152 0h514q229 0 371.5 137t142.5 369v422q0 231 -142.5 368.5t-371.5 137.5h-514v-1434zM371 217v1000h295q106 0 200.5 -72t94.5 -221v-414q0 -150 -94.5 -221.5t-200.5 -71.5h-295z" />
<glyph unicode="E" horiz-adv-x="1116" d="M152 0h845v217h-626v397h626v217h-626v386h626v217h-845v-1434z" />
<glyph unicode="F" horiz-adv-x="1095" d="M152 0h219v614h626v217h-626v386h626v217h-845v-1434z" />
<glyph unicode="G" horiz-adv-x="1236" d="M109 485q0 -231 142 -368t372 -137q229 0 371.5 137t142.5 368v303h-514v-210h295v-93q0 -150 -94.5 -219t-200.5 -69t-200.5 69.5t-94.5 218.5v463q0 150 94 219.5t201 69.5q98 0 187 -58.5t105 -183.5h220q-14 211 -154.5 335t-357.5 124q-229 0 -371.5 -137 t-142.5 -369v-463z" />
<glyph unicode="H" horiz-adv-x="1331" d="M152 0h219v614h590v-614h219v1434h-219v-603h-590v603h-219v-1434z" />
<glyph unicode="I" horiz-adv-x="522" d="M152 0h219v1434h-219v-1434z" />
<glyph unicode="J" horiz-adv-x="972" d="M16 410q2 -213 112 -321.5t300 -108.5t301 110.5t111 329.5v1014h-219v-1014q0 -98 -47.5 -160.5t-145.5 -62.5q-94 0 -142 59t-50 154h-220z" />
<glyph unicode="K" horiz-adv-x="1292" d="M152 0h219v416l219 258l444 -674h258l-557 844l502 590h-270l-596 -701v701h-219v-1434z" />
<glyph unicode="L" horiz-adv-x="1015" d="M152 0h845v217h-626v1217h-219v-1434z" />
<glyph unicode="M" horiz-adv-x="1507" d="M152 0h217v995l295 -610h180l295 610v-995h217v1434h-219l-383 -793l-383 793h-219v-1434z" />
<glyph unicode="N" horiz-adv-x="1331" d="M152 0h219v1028l590 -1028h219v1434h-219v-1028l-590 1028h-219v-1434z" />
<glyph unicode="O" horiz-adv-x="1245" d="M109 485q0 -231 142 -368t372 -137q229 0 371.5 137t142.5 368v463q0 231 -142.5 368.5t-371.5 137.5t-371.5 -137t-142.5 -369v-463zM328 485v463q0 150 94 219.5t201 69.5q106 0 200.5 -69.5t94.5 -219.5v-463q0 -150 -94.5 -219t-200.5 -69t-200.5 69.5t-94.5 218.5z " />
<glyph unicode="P" horiz-adv-x="1226" d="M152 0h219v496h325q248 0 366 139t118 330q0 190 -118 329.5t-366 139.5h-544v-1434zM371 713v508h325q137 0 198.5 -76t61.5 -178t-61 -178t-199 -76h-325z" />
<glyph unicode="Q" horiz-adv-x="1267" d="M109 485q0 -231 142 -368t372 -137q78 0 146.5 16t125.5 47l133 -135l150 145l-127 129q41 61 63.5 138t22.5 165v463q0 231 -142.5 368.5t-371.5 137.5t-371.5 -137t-142.5 -369v-463zM328 485v463q0 150 94 219.5t201 69.5q106 0 200.5 -69.5t94.5 -219.5v-463 q0 -39 -7.5 -73.5t-21.5 -61.5l-139 142l-150 -146l131 -133q-27 -8 -54.5 -12t-53.5 -4q-106 0 -200.5 69.5t-94.5 218.5z" />
<glyph unicode="R" horiz-adv-x="1249" d="M152 0v1434h563q213 0 326.5 -113t113.5 -297q0 -158 -83 -263.5t-238 -133.5l368 -627h-246l-362 616h-223v-616h-219zM371 827h344q100 0 158.5 50.5t58.5 144.5t-58.5 144.5t-158.5 50.5h-344v-390z" />
<glyph unicode="S" horiz-adv-x="1136" d="M61 444q16 -199 149.5 -331.5t379.5 -132.5q223 0 346 111.5t123 283.5t-87 277.5t-257 146.5l-246 59q-70 16 -116 62.5t-46 128.5t57.5 135t184.5 53q104 0 174 -49t90 -137h223q-27 178 -150.5 290.5t-338.5 112.5q-190 0 -326.5 -99.5t-136.5 -305.5 q0 -154 77 -261.5t218 -140.5l254 -61q106 -27 154.5 -77t48.5 -130q0 -82 -65.5 -132t-176.5 -50q-125 0 -206 64.5t-103 182.5h-224z" />
<glyph unicode="T" horiz-adv-x="1058" d="M16 1217h404v-1217h219v1217h403v217h-1026v-217z" />
<glyph unicode="U" horiz-adv-x="1294" d="M133 485q0 -231 142.5 -368t371.5 -137t371.5 137t142.5 368v949h-219v-949q0 -150 -94 -219t-201 -69q-106 0 -200.5 69.5t-94.5 218.5v949h-219v-949z" />
<glyph unicode="V" horiz-adv-x="1261" d="M16 1434h226l389 -1119l389 1119h225l-502 -1434h-225z" />
<glyph unicode="W" horiz-adv-x="1523" d="M43 1434h215l182 -1004l219 799h205l219 -799l183 1004h215l-264 -1434h-207l-248 903l-248 -903h-207z" />
<glyph unicode="X" horiz-adv-x="1253" d="M25 0l454 741l-424 693h246l326 -535l325 535h246l-424 -693l455 -741h-246l-356 586l-357 -586h-245z" />
<glyph unicode="Y" horiz-adv-x="1216" d="M-6 1434h242l372 -660l373 660h242l-506 -887v-547h-219v547z" />
<glyph unicode="Z" horiz-adv-x="1198" d="M68 0h1038v217h-772l762 1000v217h-1018v-217h751l-761 -1000v-217z" />
<glyph unicode="[" d="M184 -295v1729h346v-193h-151v-1343h151v-193h-346z" />
<glyph unicode="\" horiz-adv-x="747" d="M-23 1434h213l580 -1434h-213z" />
<glyph unicode="]" d="M68 -102v-193h346v1729h-346v-193h151v-1343h-151z" />
<glyph unicode="^" horiz-adv-x="1277" d="M121 614l416 820h204l416 -820h-219l-299 590l-299 -590h-219z" />
<glyph unicode="_" horiz-adv-x="856" d="M-12 -96v-187h880v187h-880z" />
<glyph unicode="`" horiz-adv-x="632" d="M96 1434h277l137 -265h-172z" />
<glyph unicode="a" horiz-adv-x="1112" d="M94 293q0 -162 108.5 -237.5t252.5 -75.5q104 0 184 29.5t131 90.5v-100h215v647q0 260 -151.5 349t-288.5 89q-127 0 -267.5 -73.5t-166.5 -282.5h219q20 76 77.5 113t137.5 37q94 0 154.5 -51.5t68.5 -153.5v-2q-133 -8 -241.5 -20.5t-202.5 -41.5 q-131 -41 -180.5 -134t-49.5 -183zM309 311q0 39 15.5 62.5t35.5 36.5q57 35 163 49t247 22v-59q0 -147 -94 -191.5t-187 -44.5q-86 0 -133 31t-47 94z" />
<glyph unicode="b" horiz-adv-x="1134" d="M141 0h215v100q23 -45 93.5 -82.5t152.5 -37.5q135 0 277.5 97t142.5 341v229q0 244 -142.5 341t-277.5 97q-82 0 -152.5 -37.5t-93.5 -82.5v469h-215v-1434zM356 422v221q0 119 62.5 176.5t163.5 57.5q100 0 162.5 -57.5t62.5 -176.5v-221q0 -119 -62.5 -176.5 t-162.5 -57.5t-163 57.5t-63 176.5z" />
<glyph unicode="c" horiz-adv-x="1083" d="M113 418q0 -260 151.5 -349t288.5 -89q129 0 273.5 77.5t164.5 302.5h-217q-14 -88 -74.5 -131t-146.5 -43q-100 0 -162.5 58.5t-62.5 177.5v221q0 119 62.5 177.5t162.5 58.5q86 0 145.5 -43t73.5 -131h219q-20 225 -164.5 302.5t-273.5 77.5q-137 0 -288.5 -89 t-151.5 -349v-229z" />
<glyph unicode="d" horiz-adv-x="1134" d="M113 418v229q0 244 142 341t277 97q82 0 153 -37.5t93 -82.5v469h215v-1434h-215v100q-23 -45 -93.5 -82.5t-152.5 -37.5q-135 0 -277 97t-142 341zM328 422q0 -119 61.5 -176.5t149.5 -57.5q100 0 169.5 57.5t69.5 176.5v221q0 119 -62.5 176.5t-162.5 57.5 t-162.5 -57.5t-62.5 -176.5v-221z" />
<glyph unicode="e" horiz-adv-x="1095" d="M113 418q0 -260 151.5 -349t288.5 -89q127 0 267.5 73.5t166.5 282.5h-219q-20 -76 -77.5 -113t-137.5 -37q-100 0 -162.5 58.5t-62.5 177.5v35h665v190q0 260 -151.5 349t-288.5 89t-288.5 -89t-151.5 -349v-229zM328 647v2q0 115 62.5 172.5t162.5 57.5 q98 0 160.5 -57.5t64.5 -172.5v-2h-450z" />
<glyph unicode="f" horiz-adv-x="686" d="M45 854h150v-854h215v854h260v203h-260v69q0 57 17 79t81 22h162v207h-224q-131 0 -191 -64.5t-60 -187.5v-125h-150v-203z" />
<glyph unicode="g" horiz-adv-x="1130" d="M109 479q0 -244 142 -341t277 -97q82 0 153 38t93 83v-117q0 -119 -62.5 -177t-162.5 -58q-84 0 -143.5 42t-75.5 128h-217q20 -221 163.5 -299t272.5 -78q137 0 288.5 89t151.5 349v1016h-215v-92q-23 45 -93.5 82.5t-152.5 37.5q-135 0 -277 -97t-142 -341v-168z M324 483v160q0 119 62.5 176.5t162.5 57.5t162.5 -57.5t62.5 -176.5v-160q0 -119 -62.5 -176t-162.5 -57t-162.5 57.5t-62.5 175.5z" />
<glyph unicode="h" horiz-adv-x="1148" d="M141 0h215v643q0 119 62.5 176.5t163.5 57.5q100 0 162.5 -57.5t62.5 -176.5v-643h215v647q0 244 -142.5 341t-277.5 97q-82 0 -152.5 -37.5t-93.5 -82.5v469h-215v-1434z" />
<glyph unicode="i" horiz-adv-x="497" d="M141 0h215v1057h-215v-1057zM141 1214h215v220h-215v-220z" />
<glyph unicode="j" horiz-adv-x="497" d="M10 -170v-207h94q131 0 191.5 64.5t60.5 187.5v1182h-215v-1127q0 -57 -17.5 -78.5t-80.5 -21.5h-33zM141 1214h215v220h-215v-220z" />
<glyph unicode="k" horiz-adv-x="1077" d="M141 0h215v344l131 143l332 -487h250l-438 643l381 414h-260l-396 -430v807h-215v-1434z" />
<glyph unicode="l" horiz-adv-x="557" d="M137 252v1182h215v-1127q0 -57 17.5 -78.5t81.5 -21.5h32v-207h-94q-131 0 -191.5 64.5t-60.5 187.5z" />
<glyph unicode="m" horiz-adv-x="1773" d="M141 0h215v643q0 119 63.5 176.5t151.5 57.5t151.5 -57.5t63.5 -176.5v-643h215v643q0 119 63.5 176.5t152.5 57.5q88 0 151.5 -57.5t63.5 -176.5v-643h215v647q0 244 -142.5 341t-287.5 97q-82 0 -176.5 -36.5t-145.5 -112.5q-51 76 -140 112.5t-163 36.5 q-76 0 -145.5 -38.5t-90.5 -81.5v92h-215v-1057z" />
<glyph unicode="n" horiz-adv-x="1148" d="M141 0h215v643q0 119 62.5 176.5t163.5 57.5q100 0 162.5 -57.5t62.5 -176.5v-643h215v647q0 244 -142.5 341t-277.5 97q-82 0 -152.5 -37.5t-93.5 -82.5v92h-215v-1057z" />
<glyph unicode="o" horiz-adv-x="1105" d="M113 418q0 -260 151.5 -349t288.5 -89t288.5 89t151.5 349v229q0 260 -151.5 349t-288.5 89t-288.5 -89t-151.5 -349v-229zM328 422v221q0 119 62.5 177.5t162.5 58.5t162.5 -58.5t62.5 -177.5v-221q0 -119 -62.5 -177.5t-162.5 -58.5t-162.5 58.5t-62.5 177.5z" />
<glyph unicode="p" horiz-adv-x="1134" d="M141 -377h215v477q23 -45 93.5 -82.5t152.5 -37.5q135 0 277.5 97t142.5 341v229q0 244 -142.5 341t-277.5 97q-82 0 -152.5 -37.5t-93.5 -82.5v92h-215v-1434zM356 422v221q0 119 62.5 176.5t163.5 57.5q100 0 162.5 -57.5t62.5 -176.5v-221q0 -119 -62.5 -176.5 t-162.5 -57.5t-163 57.5t-63 176.5z" />
<glyph unicode="q" horiz-adv-x="1134" d="M113 418v229q0 244 142 341t277 97q82 0 153 -37.5t93 -82.5v92h215v-1434h-215v477q-23 -45 -93.5 -82.5t-152.5 -37.5q-135 0 -277 97t-142 341zM328 422q0 -119 61.5 -176.5t149.5 -57.5q100 0 169.5 57.5t69.5 176.5v221q0 119 -62.5 176.5t-162.5 57.5t-162.5 -57.5 t-62.5 -176.5v-221z" />
<glyph unicode="r" horiz-adv-x="706" d="M141 0h215v633q0 119 62.5 176t163.5 57h102v209h-82q-82 0 -152.5 -38t-93.5 -83v103h-215v-1057z" />
<glyph unicode="s" horiz-adv-x="987" d="M68 338q8 -180 138 -269t312 -89q172 0 281.5 77.5t111.5 233.5q0 150 -72.5 222.5t-215.5 109.5l-195 49q-43 10 -81 30.5t-38 67.5q0 63 51.5 86t100.5 23q74 0 128 -31t66 -100h226q-14 176 -125 256.5t-281 80.5q-160 0 -271.5 -77.5t-111.5 -233.5q0 -152 82 -220.5 t186 -94.5l201 -51q51 -12 92 -35t41 -76q0 -63 -52 -87t-122 -24q-86 0 -152.5 37t-78.5 115h-221z" />
<glyph unicode="t" horiz-adv-x="735" d="M41 854v203h149v239h216v-239h260v-203h-260v-547q0 -57 17 -78.5t81 -21.5h162v-207h-224q-131 0 -191.5 64.5t-60.5 187.5v602h-149z" />
<glyph unicode="u" horiz-adv-x="1136" d="M127 418q0 -231 136 -334.5t272 -103.5q82 0 152.5 37.5t92.5 82.5v-100h215v1057h-215v-635q0 -119 -62.5 -176.5t-156.5 -57.5t-156.5 57.5t-62.5 176.5v635h-215v-639z" />
<glyph unicode="v" horiz-adv-x="974" d="M0 1057l381 -1057h213l381 1057h-223l-265 -752l-264 752h-223z" />
<glyph unicode="w" horiz-adv-x="1409" d="M14 1057l279 -1057h217l195 776l194 -776h217l279 1057h-219l-177 -719l-180 719h-229l-180 -719l-177 719h-219z" />
<glyph unicode="x" horiz-adv-x="1007" d="M18 0l359 543l-342 514h237l232 -352l231 352h238l-342 -514l358 -543h-237l-248 379l-248 -379h-238z" />
<glyph unicode="y" horiz-adv-x="974" d="M0 1057l377 -1043l-29 -77q-27 -66 -46 -86.5t-97 -20.5h-43v-207h110q94 0 152.5 34t81.5 99l469 1301h-223l-265 -752l-264 752h-223z" />
<glyph unicode="z" horiz-adv-x="921" d="M68 0h788v203h-520l506 651v203h-760v-203h491l-505 -651v-203z" />
<glyph unicode="{" horiz-adv-x="663" d="M98 473h66q51 0 68.5 -26.5t17.5 -77.5v-412q0 -123 60.5 -187.5t191.5 -64.5h94v193h-49q-61 0 -82 23.5t-21 80.5v412q0 47 -12 90t-53 65q41 20 53 64.5t12 91.5v412q0 57 20.5 80.5t82.5 23.5h49v193h-94q-131 0 -191.5 -64.5t-60.5 -187.5v-412q0 -51 -17.5 -77.5 t-68.5 -26.5h-66v-193z" />
<glyph unicode="|" horiz-adv-x="497" d="M152 -205h194v1639h-194v-1639z" />
<glyph unicode="}" horiz-adv-x="663" d="M68 -102h49q61 0 81.5 23.5t20.5 80.5v412q0 47 12.5 90t53.5 65q-41 20 -53.5 64.5t-12.5 91.5v412q0 57 -20.5 80.5t-81.5 23.5h-49v193h94q131 0 191.5 -64.5t60.5 -187.5v-412q0 -51 17.5 -77.5t68.5 -26.5h65v-193h-65q-51 0 -68.5 -26.5t-17.5 -77.5v-412 q0 -123 -60.5 -187.5t-191.5 -64.5h-94v193z" />
<glyph unicode="~" horiz-adv-x="1101" d="M111 565l118 -131q51 55 89 74.5t81 19.5q59 0 138 -47t174 -47q68 0 136 35t144 115l-119 131q-51 -55 -89 -74.5t-81 -19.5q-59 0 -138 47t-173 47q-68 0 -136.5 -35t-143.5 -115z" />
<glyph unicode="&#xa1;" horiz-adv-x="536" d="M131 782h275v275h-275v-275zM162 -377h215v1004h-215v-1004z" />
<glyph unicode="&#xa2;" horiz-adv-x="1103" d="M123 418q0 -240 131 -333t264 -103v-187h88v187q125 8 251 90t144 288h-217q-14 -76 -61 -118.5t-117 -53.5v686q70 -8 116 -51t60 -118h219q-18 207 -144 288.5t-251 89.5v187h-88v-187q-133 -10 -264 -104t-131 -332v-229zM338 422v221q0 104 49 162.5t131 68.5v-686 q-82 12 -131 70.5t-49 163.5z" />
<glyph unicode="&#xa3;" horiz-adv-x="1232" d="M121 0h1012v207h-684q8 12 13 30.5t5 47.5v366h451v135h-451v226q0 119 62.5 177t162.5 58t163 -58.5t63 -176.5h215v4q0 260 -152 349t-289 89t-288.5 -89t-151.5 -349v-230h-131v-135h131v-344q0 -53 -15.5 -75.5t-66.5 -24.5h-49v-207z" />
<glyph unicode="&#xa4;" horiz-adv-x="1460" d="M121 182l94 -96l174 174q70 -55 158 -86t184 -31q94 0 182 31t158 86l174 -174l94 96l-174 172q55 70 87 158t32 184t-31.5 183.5t-87.5 156.5l174 174l-94 97l-174 -174q-70 55 -158 85.5t-182 30.5q-96 0 -184 -31.5t-158 -87.5l-174 177l-94 -97l174 -174 q-55 -70 -86 -157.5t-31 -182.5q0 -96 31 -183t86 -157zM385 696q0 141 102.5 243.5t243.5 102.5t243.5 -102t102.5 -244q0 -141 -102.5 -243.5t-243.5 -102.5t-243.5 102.5t-102.5 243.5z" />
<glyph unicode="&#xa5;" horiz-adv-x="1302" d="M37 1434h237l377 -664l377 664h238l-430 -752h254v-135h-332v-137h332v-136h-332v-274h-215v274h-332v136h332v137h-332v135h254z" />
<glyph unicode="&#xa6;" horiz-adv-x="497" d="M152 -205h194v694h-194v-694zM152 739h194v695h-194v-695z" />
<glyph unicode="&#xa7;" horiz-adv-x="1101" d="M115 551q0 -184 92 -257t190 -108l197 -69q82 -31 112.5 -77t30.5 -103q0 -76 -53 -110t-131 -34q-80 0 -136.5 44t-66.5 124h-200q20 -172 123.5 -265t279.5 -93q172 0 275.5 82t103.5 249q0 88 -30 155t-83 116q82 43 125 118.5t43 180.5q0 184 -92 257t-190 107 l-220 78q-47 16 -82.5 57t-35.5 103q0 76 54 117t126 41q84 0 132 -40t62 -110h199q-20 166 -119.5 253t-273.5 87q-176 0 -276.5 -99.5t-100.5 -244.5q0 -90 30.5 -155.5t80.5 -108.5q-80 -45 -123 -121t-43 -174zM309 547q2 80 55.5 128t147.5 54l139 -49q72 -27 107 -68 t35 -106q0 -80 -54.5 -128t-148.5 -54l-139 51q-72 27 -107 66.5t-35 105.5z" />
<glyph unicode="&#xa8;" horiz-adv-x="860" d="M125 1192h215v219h-215v-219zM520 1192h215v219h-215v-219z" />
<glyph unicode="&#xa9;" horiz-adv-x="1634" d="M80 717q0 -305 216 -521t521 -216t521 216t216 521t-216 521t-521 216t-521 -216t-216 -521zM274 717q0 223 159 384t384 161t384 -161t159 -384t-159 -384t-384 -161t-384 161t-159 384zM510 614q0 -133 78 -217t229 -84q150 0 228.5 80t80.5 207h-176q-4 -51 -38.5 -83 t-94.5 -32q-63 0 -98 36t-35 93v205q0 57 35 92t98 35q59 0 94 -31.5t39 -83.5h176q-2 127 -80.5 208t-228.5 81q-152 0 -229.5 -85t-77.5 -216v-205z" />
<glyph unicode="&#xaa;" horiz-adv-x="677" d="M45 991q0 -80 56.5 -131t172.5 -51q76 0 113 27.5t53 60.5v-76h174v334q0 113 -61 204t-221 91q-133 0 -193.5 -63.5t-81.5 -145.5h174q12 25 37 41t64 16q45 0 70.5 -21.5t33.5 -51.5q-63 -4 -154.5 -16.5t-129.5 -34.5q-57 -33 -82 -71t-25 -112zM219 1014q0 16 5 26.5 t30 22.5q14 6 71.5 12t114.5 8v-12q0 -43 -35.5 -79t-99.5 -36q-53 0 -69.5 21.5t-16.5 36.5z" />
<glyph unicode="&#xab;" horiz-adv-x="995" d="M104 463v192l353 310v-258l-168 -148l168 -147v-258zM522 463v192l352 310v-258l-167 -148l167 -147v-258z" />
<glyph unicode="&#xac;" horiz-adv-x="1142" d="M131 481h694v-348h187v535h-881v-187z" />
<glyph unicode="&#xad;" horiz-adv-x="794" d="M100 481h594v187h-594v-187z" />
<glyph unicode="&#xae;" horiz-adv-x="1634" d="M80 717q0 -305 216 -521t521 -216t521 216t216 521t-216 521t-521 216t-521 -216t-216 -521zM274 717q0 223 159 384t384 161t384 -161t159 -384t-159 -384t-384 -161t-384 161t-159 384zM535 324v784h348q121 0 187.5 -63.5t66.5 -172.5q0 -88 -43 -147t-121 -80 l188 -321h-203l-182 311h-67v-311h-174zM709 805h180q33 0 53.5 16.5t20.5 46.5q0 33 -20.5 50.5t-53.5 17.5h-180v-131z" />
<glyph unicode="&#xaf;" horiz-adv-x="897" d="M119 1214h659v175h-659v-175z" />
<glyph unicode="&#xb0;" horiz-adv-x="823" d="M92 1124q0 -131 94.5 -225t225.5 -94t225 94t94 225t-94 225.5t-225 94.5t-225.5 -94.5t-94.5 -225.5zM260 1124q0 63 44 108.5t108 45.5q63 0 107 -45t44 -109q0 -63 -44 -108t-107 -45t-107.5 45t-44.5 108z" />
<glyph unicode="&#xb1;" horiz-adv-x="1142" d="M131 0v186h881v-186h-881zM131 602v186h348v269h187v-269h346v-186h-346v-268h-187v268h-348z" />
<glyph unicode="&#xb2;" horiz-adv-x="651" d="M39 821h567v154h-315l192 178q63 57 93 112.5t30 137.5q0 100 -66.5 181t-215.5 81q-154 0 -216.5 -86t-68.5 -190h174v12q0 45 27.5 77.5t83.5 32.5q55 0 81.5 -32.5t26.5 -77.5q0 -27 -10 -52.5t-45 -58.5l-338 -315v-154z" />
<glyph unicode="&#xb3;" horiz-adv-x="657" d="M39 1059h172q4 -39 33.5 -67.5t81.5 -28.5q47 0 75.5 25.5t28.5 68.5q0 45 -32.5 72.5t-86.5 27.5h-67v156h67q55 0 87 21.5t32 62.5q0 51 -26.5 82.5t-81.5 31.5q-51 0 -79 -28.5t-32 -67.5h-172q12 96 73.5 173t209.5 77q154 0 218 -85t64 -173q0 -39 -18.5 -89 t-63.5 -87q39 -27 60.5 -85.5t21.5 -103.5q0 -98 -68.5 -165.5t-213.5 -67.5q-143 0 -207 78t-76 172z" />
<glyph unicode="&#xb4;" horiz-adv-x="632" d="M123 1169h172l242 265h-277z" />
<glyph unicode="&#xb5;" horiz-adv-x="1150" d="M141 -377h215v473q23 -43 85.5 -79.5t133.5 -36.5q72 0 134.5 36.5t85.5 79.5v-96h215v1057h-215v-635q0 -119 -62.5 -176.5t-157.5 -57.5q-94 0 -156.5 57.5t-62.5 176.5v635h-215v-1434z" />
<glyph unicode="&#xb6;" horiz-adv-x="1259" d="M55 1024q0 -168 120 -289t288 -121h20v-792h195v1419h225v-1419h195v1612h-635q-168 0 -288 -122t-120 -288z" />
<glyph unicode="&#xb7;" horiz-adv-x="618" d="M172 457h274v274h-274v-274z" />
<glyph unicode="&#xb8;" horiz-adv-x="555" d="M100 -324h232l78 324h-177z" />
<glyph unicode="&#xb9;" horiz-adv-x="454" d="M39 1284l158 137v-600h174v832h-174l-158 -140v-229z" />
<glyph unicode="&#xba;" horiz-adv-x="675" d="M55 1106q0 -115 61.5 -206t221.5 -91t221.5 91t61.5 206v49q0 113 -61.5 204t-221.5 91t-221.5 -91t-61.5 -204v-49zM229 1073v115q0 45 27 77.5t82 32.5t81.5 -32.5t26.5 -77.5v-115q0 -45 -26.5 -77.5t-81.5 -32.5t-82 32.5t-27 77.5z" />
<glyph unicode="&#xbb;" horiz-adv-x="995" d="M96 154l353 309v192l-353 310v-258l168 -148l-168 -147v-258zM514 154l352 309v192l-352 310v-258l168 -148l-168 -147v-258z" />
<glyph unicode="&#xbc;" horiz-adv-x="1794" d="M244 1065l157 137v-600h174v832h-174l-157 -140v-229zM307 0h195l985 1434h-195zM1075 180h355v-180h174v180h86v152h-86v499h-174l-355 -499v-152zM1280 332l150 211v-211h-150z" />
<glyph unicode="&#xbd;" horiz-adv-x="1794" d="M244 1065l157 137v-600h174v832h-174l-157 -140v-229zM307 0h195l985 1434h-195zM1100 0h567v154h-315l192 178q63 57 93 112.5t30 137.5q0 100 -66.5 181t-216.5 81q-154 0 -216 -86t-68 -191h174v13q0 45 27.5 77.5t82.5 32.5t82 -32.5t27 -77.5q0 -27 -10 -52.5 t-45 -58.5l-338 -315v-154z" />
<glyph unicode="&#xbe;" horiz-adv-x="1794" d="M127 840h172q4 -39 33.5 -68t81.5 -29q47 0 75.5 26t28.5 69q0 45 -32.5 72.5t-86.5 27.5h-67v156h67q55 0 87 21.5t32 62.5q0 51 -26.5 82.5t-81.5 31.5q-51 0 -79 -28.5t-32 -67.5h-172q12 96 73.5 173t209.5 77q154 0 218 -85t64 -173q0 -39 -18.5 -89t-63.5 -87 q39 -27 60.5 -85.5t21.5 -103.5q0 -98 -68.5 -165.5t-213.5 -67.5q-143 0 -207 77.5t-76 172.5zM307 0h195l985 1434h-195zM1075 180h355v-180h174v180h86v152h-86v499h-174l-355 -499v-152zM1280 332l150 211v-211h-150z" />
<glyph unicode="&#xbf;" horiz-adv-x="1019" d="M86 41q0 -260 151.5 -349t288.5 -89q135 0 287 88t154 342h-215q-2 -113 -65.5 -168t-160.5 -55q-100 0 -162.5 58t-62.5 177q0 66 36 118t75 89l106 98q76 68 100.5 115t24.5 117v45h-215v-25q0 -35 -13.5 -57.5t-49.5 -55.5l-107 -98q-72 -66 -122 -156t-50 -194z M389 782h275v275h-275v-275z" />
<glyph unicode="&#xc0;" horiz-adv-x="1261" d="M16 0h226l120 346h537l121 -346h225l-502 1434h-225zM319 1749h281l168 -223h-186zM432 549l199 569l198 -569h-397z" />
<glyph unicode="&#xc1;" horiz-adv-x="1261" d="M16 0h226l120 346h537l121 -346h225l-502 1434h-225zM432 549l199 569l198 -569h-397zM481 1526h187l262 223h-281z" />
<glyph unicode="&#xc2;" horiz-adv-x="1261" d="M16 0h226l120 346h537l121 -346h225l-502 1434h-225zM274 1526l271 223h172l270 -223h-266l-90 73l-90 -73h-267zM432 549l199 569l198 -569h-397z" />
<glyph unicode="&#xc3;" horiz-adv-x="1261" d="M16 0h226l120 346h537l121 -346h225l-502 1434h-225zM281 1522h186q10 29 25.5 43t35.5 14q8 0 19.5 -4t21.5 -8l78 -33q27 -12 53.5 -14t53.5 -2q51 0 125.5 42t101.5 195h-186q-10 -29 -25.5 -43t-36.5 -14q-8 0 -19.5 4t-21.5 8l-78 33q-27 12 -53 14t-53 2 q-51 0 -126 -42t-101 -195zM432 549l199 569l198 -569h-397z" />
<glyph unicode="&#xc4;" horiz-adv-x="1261" d="M16 0h226l120 346h537l121 -346h225l-502 1434h-225zM326 1528h219v219h-219v-219zM432 549l199 569l198 -569h-397zM717 1528h219v219h-219v-219z" />
<glyph unicode="&#xc5;" horiz-adv-x="1261" d="M16 0h226l120 346h537l121 -346h225l-502 1434h-225zM432 549l199 569l198 -569h-397zM479 1636q0 -63 44 -107t108 -44q63 0 108 44t45 107t-45 108.5t-108 45.5t-107.5 -45t-44.5 -109zM588 1636q0 18 12 30.5t31 12.5q18 0 30.5 -12t12.5 -31q0 -18 -12.5 -30.5 t-30.5 -12.5t-30.5 12.5t-12.5 30.5z" />
<glyph unicode="&#xc6;" horiz-adv-x="1761" d="M2 0h231l160 346h404v-346h845v217h-626v397h626v217h-626v386h626v217h-980zM485 549l312 676v-676h-312z" />
<glyph unicode="&#xc7;" horiz-adv-x="1222" d="M109 485q0 -207 115.5 -340t305.5 -159l-116 -310h235l74 312q178 27 288.5 147.5t123.5 308.5h-220q-14 -129 -103 -188t-189 -59q-106 0 -200.5 69.5t-94.5 218.5v463q0 150 94 219.5t201 69.5q100 0 189 -59.5t103 -188.5h220q-12 213 -152.5 339t-359.5 126 q-229 0 -371.5 -137t-142.5 -369v-463z" />
<glyph unicode="&#xc8;" horiz-adv-x="1116" d="M152 0h845v217h-626v397h626v217h-626v386h626v217h-845v-1434zM262 1749h281l168 -223h-187z" />
<glyph unicode="&#xc9;" horiz-adv-x="1116" d="M152 0h845v217h-626v397h626v217h-626v386h626v217h-845v-1434zM424 1526h186l262 223h-280z" />
<glyph unicode="&#xca;" horiz-adv-x="1116" d="M152 0h845v217h-626v397h626v217h-626v386h626v217h-845v-1434zM217 1526l270 223h172l271 -223h-266l-91 73l-90 -73h-266z" />
<glyph unicode="&#xcb;" horiz-adv-x="1116" d="M152 0h845v217h-626v397h626v217h-626v386h626v217h-845v-1434zM268 1528h219v219h-219v-219zM659 1528h220v219h-220v-219z" />
<glyph unicode="&#xcc;" horiz-adv-x="522" d="M-51 1749h280l168 -223h-186zM152 0h219v1434h-219v-1434z" />
<glyph unicode="&#xcd;" horiz-adv-x="522" d="M111 1526h186l262 223h-280zM152 0h219v1434h-219v-1434z" />
<glyph unicode="&#xce;" horiz-adv-x="522" d="M-96 1526l270 223h172l270 -223h-266l-90 73l-90 -73h-266zM152 0h219v1434h-219v-1434z" />
<glyph unicode="&#xcf;" horiz-adv-x="522" d="M-45 1528h219v219h-219v-219zM152 0h219v1434h-219v-1434zM346 1528h219v219h-219v-219z" />
<glyph unicode="&#xd0;" horiz-adv-x="1310" d="M31 645h143v-645h514q229 0 371.5 137t142.5 369v422q0 231 -142 368.5t-372 137.5h-514v-643h-143v-146zM393 217v428h295v146h-295v426h295q106 0 200.5 -72t94.5 -221v-414q0 -150 -94 -221.5t-201 -71.5h-295z" />
<glyph unicode="&#xd1;" horiz-adv-x="1331" d="M152 0h219v1028l590 -1028h219v1434h-219v-1028l-590 1028h-219v-1434zM315 1522h187q10 29 25.5 43t35.5 14q8 0 19.5 -4t21.5 -8l78 -33q27 -12 53.5 -14t52.5 -2q51 0 126 42t102 195h-187q-10 -29 -25.5 -43t-35.5 -14q-8 0 -19.5 4t-21.5 8l-78 33q-27 12 -53.5 14 t-52.5 2q-51 0 -126 -42t-102 -195z" />
<glyph unicode="&#xd2;" horiz-adv-x="1245" d="M109 485q0 -231 142 -368t372 -137q229 0 371.5 137t142.5 368v463q0 231 -142.5 368.5t-371.5 137.5t-371.5 -137t-142.5 -369v-463zM311 1749h281l168 -223h-187zM328 485v463q0 150 94 219.5t201 69.5q106 0 200.5 -69.5t94.5 -219.5v-463q0 -150 -94.5 -219 t-200.5 -69t-200.5 69.5t-94.5 218.5z" />
<glyph unicode="&#xd3;" horiz-adv-x="1245" d="M109 485q0 -231 142 -368t372 -137q229 0 371.5 137t142.5 368v463q0 231 -142.5 368.5t-371.5 137.5t-371.5 -137t-142.5 -369v-463zM328 485v463q0 150 94 219.5t201 69.5q106 0 200.5 -69.5t94.5 -219.5v-463q0 -150 -94.5 -219t-200.5 -69t-200.5 69.5t-94.5 218.5z M473 1526h186l263 223h-281z" />
<glyph unicode="&#xd4;" horiz-adv-x="1245" d="M109 485q0 -231 142 -368t372 -137q229 0 371.5 137t142.5 368v463q0 231 -142.5 368.5t-371.5 137.5t-371.5 -137t-142.5 -369v-463zM266 1526l271 223h172l270 -223h-266l-90 73l-91 -73h-266zM328 485v463q0 150 94 219.5t201 69.5q106 0 200.5 -69.5t94.5 -219.5 v-463q0 -150 -94.5 -219t-200.5 -69t-200.5 69.5t-94.5 218.5z" />
<glyph unicode="&#xd5;" horiz-adv-x="1245" d="M109 485q0 -231 142 -368t372 -137q229 0 371.5 137t142.5 368v463q0 231 -142.5 368.5t-371.5 137.5t-371.5 -137t-142.5 -369v-463zM272 1522h187q10 29 25.5 43t35.5 14q8 0 19.5 -4t21.5 -8l78 -33q27 -12 53.5 -14t52.5 -2q51 0 126 42t102 195h-187 q-10 -29 -25.5 -43t-35.5 -14q-8 0 -19.5 4t-21.5 8l-78 33q-27 12 -53.5 14t-52.5 2q-51 0 -126 -42t-102 -195zM328 485v463q0 150 94 219.5t201 69.5q106 0 200.5 -69.5t94.5 -219.5v-463q0 -150 -94.5 -219t-200.5 -69t-200.5 69.5t-94.5 218.5z" />
<glyph unicode="&#xd6;" horiz-adv-x="1245" d="M109 485q0 -231 142 -368t372 -137q229 0 371.5 137t142.5 368v463q0 231 -142.5 368.5t-371.5 137.5t-371.5 -137t-142.5 -369v-463zM317 1528h220v219h-220v-219zM328 485v463q0 150 94 219.5t201 69.5q106 0 200.5 -69.5t94.5 -219.5v-463q0 -150 -94.5 -219 t-200.5 -69t-200.5 69.5t-94.5 218.5zM709 1528h219v219h-219v-219z" />
<glyph unicode="&#xd7;" horiz-adv-x="1142" d="M125 260l131 -133l315 315l316 -315l131 133l-316 315l316 316l-131 133l-316 -317l-315 317l-131 -133l313 -316z" />
<glyph unicode="&#xd8;" horiz-adv-x="1257" d="M115 20l125 -77l75 125q63 -43 142.5 -65.5t171.5 -22.5q229 0 371.5 137t142.5 368v463q0 94 -24.5 172t-69.5 142l94 151l-123 80l-80 -129q-63 43 -141 66.5t-170 23.5q-229 0 -371.5 -137t-142.5 -369v-463q0 -94 23.5 -173t68.5 -140zM334 485v463q0 150 94 219.5 t201 69.5q51 0 102 -15.5t92 -47.5l-479 -779q-4 20 -7 43t-3 47zM434 260l477 778q6 -20 9.5 -42.5t3.5 -47.5v-463q0 -150 -94.5 -219t-200.5 -69q-51 0 -102.5 15t-92.5 48z" />
<glyph unicode="&#xd9;" horiz-adv-x="1294" d="M133 485q0 -231 142.5 -368t371.5 -137t371.5 137t142.5 368v949h-219v-949q0 -150 -94 -219t-201 -69q-106 0 -200.5 69.5t-94.5 218.5v949h-219v-949zM336 1749h280l168 -223h-186z" />
<glyph unicode="&#xda;" horiz-adv-x="1294" d="M133 485q0 -231 142.5 -368t371.5 -137t371.5 137t142.5 368v949h-219v-949q0 -150 -94 -219t-201 -69q-106 0 -200.5 69.5t-94.5 218.5v949h-219v-949zM498 1526h186l262 223h-280z" />
<glyph unicode="&#xdb;" horiz-adv-x="1294" d="M133 485q0 -231 142.5 -368t371.5 -137t371.5 137t142.5 368v949h-219v-949q0 -150 -94 -219t-201 -69q-106 0 -200.5 69.5t-94.5 218.5v949h-219v-949zM291 1526l270 223h172l271 -223h-267l-90 73l-90 -73h-266z" />
<glyph unicode="&#xdc;" horiz-adv-x="1294" d="M133 485q0 -231 142.5 -368t371.5 -137t371.5 137t142.5 368v949h-219v-949q0 -150 -94 -219t-201 -69q-106 0 -200.5 69.5t-94.5 218.5v949h-219v-949zM342 1528h219v219h-219v-219zM733 1528h219v219h-219v-219z" />
<glyph unicode="&#xdd;" horiz-adv-x="1216" d="M-6 1434h242l372 -660l373 660h242l-506 -887v-547h-219v547zM459 1526h186l262 223h-280z" />
<glyph unicode="&#xde;" horiz-adv-x="1206" d="M152 0h219v248h325q248 0 366 139t118 330q0 190 -118 329.5t-366 139.5h-325v248h-219v-1434zM371 465v508h325q137 0 198.5 -76t61.5 -178t-61 -178t-199 -76h-325z" />
<glyph unicode="&#xdf;" horiz-adv-x="1107" d="M141 0h215v1055q0 88 42 140t132 52t132.5 -52t42.5 -140t-42 -138.5t-133 -50.5h-45v-198h74q127 0 187.5 -70t60.5 -170t-45 -171t-172 -71q-33 0 -58.5 6.5t-46.5 14.5v-217q25 -4 51.5 -7t53.5 -3q176 0 304 110.5t128 337.5q0 129 -49 218t-129 140q37 45 56.5 113 t19.5 156q0 213 -106.5 306t-283.5 93q-176 0 -282.5 -93t-106.5 -306v-1055z" />
<glyph unicode="&#xe0;" horiz-adv-x="1112" d="M94 293q0 -162 108.5 -237.5t252.5 -75.5q104 0 184 29.5t131 90.5v-100h215v647q0 260 -151.5 349t-288.5 89q-127 0 -267.5 -73.5t-166.5 -282.5h219q20 76 77.5 113t137.5 37q94 0 154.5 -51.5t68.5 -153.5v-2q-133 -8 -241.5 -20.5t-202.5 -41.5 q-131 -41 -180.5 -134t-49.5 -183zM266 1434h277l137 -265h-172zM309 311q0 39 15.5 62.5t35.5 36.5q57 35 163 49t247 22v-59q0 -147 -94 -191.5t-187 -44.5q-86 0 -133 31t-47 94z" />
<glyph unicode="&#xe1;" horiz-adv-x="1112" d="M94 293q0 -162 108.5 -237.5t252.5 -75.5q104 0 184 29.5t131 90.5v-100h215v647q0 260 -151.5 349t-288.5 89q-127 0 -267.5 -73.5t-166.5 -282.5h219q20 76 77.5 113t137.5 37q94 0 154.5 -51.5t68.5 -153.5v-2q-133 -8 -241.5 -20.5t-202.5 -41.5 q-131 -41 -180.5 -134t-49.5 -183zM309 311q0 39 15.5 62.5t35.5 36.5q57 35 163 49t247 22v-59q0 -147 -94 -191.5t-187 -44.5q-86 0 -133 31t-47 94zM401 1169h172l242 265h-276z" />
<glyph unicode="&#xe2;" horiz-adv-x="1112" d="M94 293q0 -162 108.5 -237.5t252.5 -75.5q104 0 184 29.5t131 90.5v-100h215v647q0 260 -151.5 349t-288.5 89q-127 0 -267.5 -73.5t-166.5 -282.5h219q20 76 77.5 113t137.5 37q94 0 154.5 -51.5t68.5 -153.5v-2q-133 -8 -241.5 -20.5t-202.5 -41.5 q-131 -41 -180.5 -134t-49.5 -183zM203 1169h239l117 115l117 -115h239l-270 265h-172zM309 311q0 39 15.5 62.5t35.5 36.5q57 35 163 49t247 22v-59q0 -147 -94 -191.5t-187 -44.5q-86 0 -133 31t-47 94z" />
<glyph unicode="&#xe3;" horiz-adv-x="1112" d="M94 293q0 -162 108.5 -237.5t252.5 -75.5q104 0 184 29.5t131 90.5v-100h215v647q0 260 -151.5 349t-288.5 89q-127 0 -267.5 -73.5t-166.5 -282.5h219q20 76 77.5 113t137.5 37q94 0 154.5 -51.5t68.5 -153.5v-2q-133 -8 -241.5 -20.5t-202.5 -41.5 q-131 -41 -180.5 -134t-49.5 -183zM209 1186h172q12 35 27.5 48t33.5 13q16 0 30.5 -5t25.5 -9l77 -33q27 -12 53.5 -15t53.5 -3q51 0 126 42t101 195h-172q-12 -35 -27.5 -48t-33.5 -13q-16 0 -30.5 5t-24.5 9l-78 33q-27 12 -53.5 15t-53.5 3q-51 0 -125.5 -42 t-101.5 -195zM309 311q0 39 15.5 62.5t35.5 36.5q57 35 163 49t247 22v-59q0 -147 -94 -191.5t-187 -44.5q-86 0 -133 31t-47 94z" />
<glyph unicode="&#xe4;" horiz-adv-x="1112" d="M94 293q0 -162 108.5 -237.5t252.5 -75.5q104 0 184 29.5t131 90.5v-100h215v647q0 260 -151.5 349t-288.5 89q-127 0 -267.5 -73.5t-166.5 -282.5h219q20 76 77.5 113t137.5 37q94 0 154.5 -51.5t68.5 -153.5v-2q-133 -8 -241.5 -20.5t-202.5 -41.5 q-131 -41 -180.5 -134t-49.5 -183zM254 1192h215v219h-215v-219zM309 311q0 39 15.5 62.5t35.5 36.5q57 35 163 49t247 22v-59q0 -147 -94 -191.5t-187 -44.5q-86 0 -133 31t-47 94zM649 1192h215v219h-215v-219z" />
<glyph unicode="&#xe5;" horiz-adv-x="1112" d="M94 293q0 -162 108.5 -237.5t252.5 -75.5q104 0 184 29.5t131 90.5v-100h215v647q0 260 -151.5 349t-288.5 89q-127 0 -267.5 -73.5t-166.5 -282.5h219q20 76 77.5 113t137.5 37q94 0 154.5 -51.5t68.5 -153.5v-2q-133 -8 -241.5 -20.5t-202.5 -41.5 q-131 -41 -180.5 -134t-49.5 -183zM309 311q0 39 15.5 62.5t35.5 36.5q57 35 163 49t247 22v-59q0 -147 -94 -191.5t-187 -44.5q-86 0 -133 31t-47 94zM408 1300q0 -63 44 -107t107 -44t108.5 44t45.5 107t-45 108.5t-109 45.5q-63 0 -107 -45t-44 -109zM512 1300 q0 20 13.5 34t33.5 14t33.5 -13.5t13.5 -34.5q0 -20 -13 -33.5t-34 -13.5q-20 0 -33.5 13.5t-13.5 33.5z" />
<glyph unicode="&#xe6;" horiz-adv-x="1753" d="M94 293q0 -162 108.5 -237.5t252.5 -75.5q115 0 209 40.5t163 153.5q63 -111 174 -152.5t209 -41.5q127 0 267.5 73.5t167.5 282.5h-220q-20 -76 -77.5 -113t-137.5 -37q-100 0 -162.5 58.5t-62.5 177.5v35h666v190q0 260 -151.5 349t-289.5 89q-82 0 -173 -28.5 t-160 -120.5q-63 88 -156.5 118.5t-175.5 30.5q-127 0 -267.5 -73.5t-166.5 -282.5h219q20 76 77.5 113t137.5 37q94 0 154.5 -51.5t68.5 -155.5q-133 -8 -241.5 -20.5t-202.5 -41.5q-131 -41 -180.5 -134t-49.5 -183zM309 311q0 39 15.5 62.5t35.5 36.5q57 35 163 49 t247 22v-59q0 -147 -94 -191.5t-187 -44.5q-86 0 -133 31t-47 94zM985 647q0 117 62.5 174.5t162.5 57.5q98 0 161 -57.5t65 -174.5h-451z" />
<glyph unicode="&#xe7;" horiz-adv-x="1083" d="M113 418q0 -225 115.5 -320.5t244.5 -111.5l-127 -310h232l73 312q115 20 219.5 104t120.5 268h-217q-14 -88 -74.5 -131t-146.5 -43q-100 0 -162.5 58.5t-62.5 177.5v221q0 119 62.5 177.5t162.5 58.5q86 0 145.5 -43t73.5 -131h219q-20 225 -164.5 302.5t-273.5 77.5 q-137 0 -288.5 -89t-151.5 -349v-229z" />
<glyph unicode="&#xe8;" horiz-adv-x="1095" d="M113 418q0 -260 151.5 -349t288.5 -89q127 0 267.5 73.5t166.5 282.5h-219q-20 -76 -77.5 -113t-137.5 -37q-100 0 -162.5 58.5t-62.5 177.5v35h665v190q0 260 -151.5 349t-288.5 89t-288.5 -89t-151.5 -349v-229zM281 1434h276l137 -265h-172zM328 647v2 q0 115 62.5 172.5t162.5 57.5q98 0 160.5 -57.5t64.5 -172.5v-2h-450z" />
<glyph unicode="&#xe9;" horiz-adv-x="1095" d="M113 418q0 -260 151.5 -349t288.5 -89q127 0 267.5 73.5t166.5 282.5h-219q-20 -76 -77.5 -113t-137.5 -37q-100 0 -162.5 58.5t-62.5 177.5v35h665v190q0 260 -151.5 349t-288.5 89t-288.5 -89t-151.5 -349v-229zM328 647v2q0 115 62.5 172.5t162.5 57.5 q98 0 160.5 -57.5t64.5 -172.5v-2h-450zM416 1169h172l241 265h-276z" />
<glyph unicode="&#xea;" horiz-adv-x="1095" d="M113 418q0 -260 151.5 -349t288.5 -89q127 0 267.5 73.5t166.5 282.5h-219q-20 -76 -77.5 -113t-137.5 -37q-100 0 -162.5 58.5t-62.5 177.5v35h665v190q0 260 -151.5 349t-288.5 89t-288.5 -89t-151.5 -349v-229zM197 1169h239l117 115l117 -115h239l-270 265h-172z M328 647v2q0 115 62.5 172.5t162.5 57.5q98 0 160.5 -57.5t64.5 -172.5v-2h-450z" />
<glyph unicode="&#xeb;" horiz-adv-x="1095" d="M113 418q0 -260 151.5 -349t288.5 -89q127 0 267.5 73.5t166.5 282.5h-219q-20 -76 -77.5 -113t-137.5 -37q-100 0 -162.5 58.5t-62.5 177.5v35h665v190q0 260 -151.5 349t-288.5 89t-288.5 -89t-151.5 -349v-229zM248 1192h215v219h-215v-219zM328 647v2 q0 115 62.5 172.5t162.5 57.5q98 0 160.5 -57.5t64.5 -172.5v-2h-450zM643 1192h215v219h-215v-219z" />
<glyph unicode="&#xec;" horiz-adv-x="497" d="M-25 1434h277l137 -265h-172zM141 0h215v1057h-215v-1057z" />
<glyph unicode="&#xed;" horiz-adv-x="497" d="M111 1169h172l241 265h-276zM141 0h215v1057h-215v-1057z" />
<glyph unicode="&#xee;" horiz-adv-x="497" d="M-109 1169h240l117 115l117 -115h239l-270 265h-172zM141 0h215v1057h-215v-1057z" />
<glyph unicode="&#xef;" horiz-adv-x="497" d="M-57 1192h215v219h-215v-219zM141 0h215v1057h-215v-1057zM338 1192h215v219h-215v-219z" />
<glyph unicode="&#xf0;" horiz-adv-x="1105" d="M113 418q0 -260 151.5 -349t288.5 -89t288.5 89t151.5 349v229q0 96 -26.5 168t-65.5 123l-174 240h104v135h-202l-88 121h-258l88 -121h-158v-135h256l68 -93q-135 -4 -279.5 -95t-144.5 -343v-229zM328 422v221q0 119 62.5 177.5t162.5 58.5t162.5 -58.5t62.5 -177.5 v-221q0 -119 -62.5 -177.5t-162.5 -58.5t-162.5 58.5t-62.5 177.5z" />
<glyph unicode="&#xf1;" horiz-adv-x="1148" d="M141 0h215v643q0 119 62.5 176.5t163.5 57.5q100 0 162.5 -57.5t62.5 -176.5v-643h215v647q0 244 -142.5 341t-277.5 97q-82 0 -152.5 -37.5t-93.5 -82.5v92h-215v-1057zM231 1186h172q12 35 27.5 48t34.5 13q16 0 30.5 -5t24.5 -9l78 -33q27 -12 53.5 -15t53.5 -3 q51 0 125.5 42t101.5 195h-172q-12 -35 -27.5 -48t-34.5 -13q-16 0 -30.5 5t-24.5 9l-78 33q-27 12 -53.5 15t-52.5 3q-51 0 -126 -42t-102 -195z" />
<glyph unicode="&#xf2;" horiz-adv-x="1105" d="M113 418q0 -260 151.5 -349t288.5 -89t288.5 89t151.5 349v229q0 260 -151.5 349t-288.5 89t-288.5 -89t-151.5 -349v-229zM281 1434h276l137 -265h-172zM328 422v221q0 119 62.5 177.5t162.5 58.5t162.5 -58.5t62.5 -177.5v-221q0 -119 -62.5 -177.5t-162.5 -58.5 t-162.5 58.5t-62.5 177.5z" />
<glyph unicode="&#xf3;" horiz-adv-x="1105" d="M113 418q0 -260 151.5 -349t288.5 -89t288.5 89t151.5 349v229q0 260 -151.5 349t-288.5 89t-288.5 -89t-151.5 -349v-229zM328 422v221q0 119 62.5 177.5t162.5 58.5t162.5 -58.5t62.5 -177.5v-221q0 -119 -62.5 -177.5t-162.5 -58.5t-162.5 58.5t-62.5 177.5zM416 1169 h172l241 265h-276z" />
<glyph unicode="&#xf4;" horiz-adv-x="1105" d="M113 418q0 -260 151.5 -349t288.5 -89t288.5 89t151.5 349v229q0 260 -151.5 349t-288.5 89t-288.5 -89t-151.5 -349v-229zM197 1169h239l117 115l117 -115h239l-270 265h-172zM328 422v221q0 119 62.5 177.5t162.5 58.5t162.5 -58.5t62.5 -177.5v-221 q0 -119 -62.5 -177.5t-162.5 -58.5t-162.5 58.5t-62.5 177.5z" />
<glyph unicode="&#xf5;" horiz-adv-x="1105" d="M113 418q0 -260 151.5 -349t288.5 -89t288.5 89t151.5 349v229q0 260 -151.5 349t-288.5 89t-288.5 -89t-151.5 -349v-229zM203 1186h172q12 35 27.5 48t33.5 13q16 0 30.5 -5t25.5 -9l77 -33q27 -12 53.5 -15t53.5 -3q51 0 126 42t101 195h-172q-12 -35 -27.5 -48 t-33.5 -13q-16 0 -30.5 5t-25.5 9l-77 33q-27 12 -53.5 15t-53.5 3q-51 0 -126 -42t-101 -195zM328 422v221q0 119 62.5 177.5t162.5 58.5t162.5 -58.5t62.5 -177.5v-221q0 -119 -62.5 -177.5t-162.5 -58.5t-162.5 58.5t-62.5 177.5z" />
<glyph unicode="&#xf6;" horiz-adv-x="1105" d="M113 418q0 -260 151.5 -349t288.5 -89t288.5 89t151.5 349v229q0 260 -151.5 349t-288.5 89t-288.5 -89t-151.5 -349v-229zM248 1192h215v219h-215v-219zM328 422v221q0 119 62.5 177.5t162.5 58.5t162.5 -58.5t62.5 -177.5v-221q0 -119 -62.5 -177.5t-162.5 -58.5 t-162.5 58.5t-62.5 177.5zM643 1192h215v219h-215v-219z" />
<glyph unicode="&#xf7;" horiz-adv-x="1142" d="M131 481h881v187h-881v-187zM434 219q0 -57 40 -97t97 -40t97.5 40t40.5 97t-40 97t-98 40q-57 0 -97 -40t-40 -97zM434 930q0 -57 40 -97t97 -40t97.5 39.5t40.5 97.5q0 57 -40 97t-98 40q-57 0 -97 -40t-40 -97z" />
<glyph unicode="&#xf8;" horiz-adv-x="1118" d="M119 29l110 -78l68 96q61 -37 130 -52t132 -15q137 0 288.5 89t151.5 349v229q0 90 -21.5 158.5t-57.5 118.5l79 112l-110 78l-70 -98q-61 39 -129.5 54t-130.5 15q-137 0 -288.5 -89t-151.5 -349v-229q0 -92 21.5 -161t58.5 -118zM334 422v221q0 119 62.5 177.5 t162.5 58.5q39 0 75 -9.5t62 -27.5l-354 -500q-4 18 -6 38.5t-2 41.5zM422 223l354 498q4 -16 6 -36.5t2 -41.5v-221q0 -119 -62.5 -177.5t-162.5 -58.5q-39 0 -74.5 9.5t-62.5 27.5z" />
<glyph unicode="&#xf9;" horiz-adv-x="1136" d="M127 418q0 -231 136 -334.5t272 -103.5q82 0 152.5 37.5t92.5 82.5v-100h215v1057h-215v-635q0 -119 -62.5 -176.5t-156.5 -57.5t-156.5 57.5t-62.5 176.5v635h-215v-639zM289 1434h276l137 -265h-172z" />
<glyph unicode="&#xfa;" horiz-adv-x="1136" d="M127 418q0 -231 136 -334.5t272 -103.5q82 0 152.5 37.5t92.5 82.5v-100h215v1057h-215v-635q0 -119 -62.5 -176.5t-156.5 -57.5t-156.5 57.5t-62.5 176.5v635h-215v-639zM424 1169h172l242 265h-277z" />
<glyph unicode="&#xfb;" horiz-adv-x="1136" d="M127 418q0 -231 136 -334.5t272 -103.5q82 0 152.5 37.5t92.5 82.5v-100h215v1057h-215v-635q0 -119 -62.5 -176.5t-156.5 -57.5t-156.5 57.5t-62.5 176.5v635h-215v-639zM205 1169h239l117 115l117 -115h240l-271 265h-172z" />
<glyph unicode="&#xfc;" horiz-adv-x="1136" d="M127 418q0 -231 136 -334.5t272 -103.5q82 0 152.5 37.5t92.5 82.5v-100h215v1057h-215v-635q0 -119 -62.5 -176.5t-156.5 -57.5t-156.5 57.5t-62.5 176.5v635h-215v-639zM256 1192h215v219h-215v-219zM651 1192h215v219h-215v-219z" />
<glyph unicode="&#xfd;" horiz-adv-x="974" d="M0 1057l377 -1043l-29 -77q-27 -66 -46 -86.5t-97 -20.5h-43v-207h110q94 0 152.5 34t81.5 99l469 1301h-223l-265 -752l-264 752h-223zM350 1169h172l242 265h-277z" />
<glyph unicode="&#xfe;" horiz-adv-x="1134" d="M141 -377h215v477q23 -45 93.5 -82.5t152.5 -37.5q135 0 277.5 97t142.5 341v229q0 244 -142.5 341t-277.5 97q-82 0 -152.5 -37.5t-93.5 -82.5v469h-215v-1811zM356 422v221q0 119 62.5 176.5t163.5 57.5q100 0 162.5 -57.5t62.5 -176.5v-221q0 -119 -62.5 -176.5 t-162.5 -57.5t-163 57.5t-63 176.5z" />
<glyph unicode="&#xff;" horiz-adv-x="974" d="M0 1057l377 -1043l-29 -77q-27 -66 -46 -86.5t-97 -20.5h-43v-207h110q94 0 152.5 34t81.5 99l469 1301h-223l-265 -752l-264 752h-223zM182 1192h215v219h-215v-219zM578 1192h215v219h-215v-219z" />
<glyph unicode="&#x152;" horiz-adv-x="1882" d="M109 485q0 -231 142 -368t372 -137q92 0 167.5 25.5t127.5 76.5v-82h845v217h-626v397h626v217h-626v386h626v217h-845v-82q-51 51 -127 76.5t-168 25.5q-229 0 -371.5 -137t-142.5 -369v-463zM328 485v463q0 150 94 219.5t201 69.5q106 0 200.5 -69.5t94.5 -219.5v-463 q0 -150 -94.5 -219t-200.5 -69t-200.5 69.5t-94.5 218.5z" />
<glyph unicode="&#x153;" horiz-adv-x="1761" d="M113 418q0 -260 151.5 -349t288.5 -89q82 0 175 30.5t157 118.5q70 -92 161 -120.5t173 -28.5q127 0 267 73.5t167 282.5h-219q-20 -76 -78 -113t-137 -37q-100 0 -163 58.5t-63 177.5v35h666v190q0 260 -151.5 349t-288.5 89q-82 0 -173.5 -28.5t-160.5 -120.5 q-63 88 -156.5 118.5t-175.5 30.5q-137 0 -288.5 -89t-151.5 -349v-229zM328 422v221q0 119 62.5 177.5t162.5 58.5t162.5 -58.5t62.5 -177.5v-221q0 -119 -62.5 -177.5t-162.5 -58.5t-162.5 58.5t-62.5 177.5zM993 647q0 117 62.5 174.5t163.5 57.5q98 0 160.5 -57.5 t64.5 -174.5h-451z" />
<glyph unicode="&#x178;" horiz-adv-x="1216" d="M-6 1434h242l372 -660l373 660h242l-506 -887v-547h-219v547zM303 1528h219v219h-219v-219zM694 1528h219v219h-219v-219z" />
<glyph unicode="&#x2c6;" horiz-adv-x="925" d="M106 1169h240l117 115l117 -115h239l-270 265h-172z" />
<glyph unicode="&#x2dc;" horiz-adv-x="925" d="M113 1186h172q12 35 27.5 48t33.5 13q16 0 30.5 -5t24.5 -9l78 -33q27 -12 53.5 -15t53.5 -3q51 0 125.5 42t101.5 195h-172q-12 -35 -27.5 -48t-33.5 -13q-16 0 -30.5 5t-25.5 9l-78 33q-27 12 -53 15t-53 3q-51 0 -126 -42t-101 -195z" />
<glyph unicode="&#x2000;" horiz-adv-x="895" />
<glyph unicode="&#x2001;" horiz-adv-x="1790" />
<glyph unicode="&#x2002;" horiz-adv-x="895" />
<glyph unicode="&#x2003;" horiz-adv-x="1790" />
<glyph unicode="&#x2004;" horiz-adv-x="596" />
<glyph unicode="&#x2005;" horiz-adv-x="447" />
<glyph unicode="&#x2006;" horiz-adv-x="298" />
<glyph unicode="&#x2007;" horiz-adv-x="298" />
<glyph unicode="&#x2008;" horiz-adv-x="223" />
<glyph unicode="&#x2009;" horiz-adv-x="358" />
<glyph unicode="&#x200a;" horiz-adv-x="99" />
<glyph unicode="&#x2010;" horiz-adv-x="794" d="M100 481h594v187h-594v-187z" />
<glyph unicode="&#x2011;" horiz-adv-x="794" d="M100 481h594v187h-594v-187z" />
<glyph unicode="&#x2012;" horiz-adv-x="794" d="M100 481h594v187h-594v-187z" />
<glyph unicode="&#x2013;" horiz-adv-x="1081" d="M100 481h881v187h-881v-187z" />
<glyph unicode="&#x2014;" horiz-adv-x="1705" d="M100 481h1506v187h-1506v-187z" />
<glyph unicode="&#x2018;" horiz-adv-x="528" d="M127 946h274v275h-112l80 213h-162l-80 -213v-275z" />
<glyph unicode="&#x2019;" horiz-adv-x="528" d="M127 1159h113l-80 -213h162l79 213v275h-274v-275z" />
<glyph unicode="&#x201a;" horiz-adv-x="528" d="M127 0h113l-80 -213h162l79 213v274h-274v-274z" />
<glyph unicode="&#x201c;" horiz-adv-x="940" d="M127 946h274v275h-112l80 213h-162l-80 -213v-275zM539 946h274v275h-113l80 213h-162l-79 -213v-275z" />
<glyph unicode="&#x201d;" horiz-adv-x="940" d="M127 1159h113l-80 -213h162l79 213v275h-274v-275zM539 1159h112l-80 -213h162l80 213v275h-274v-275z" />
<glyph unicode="&#x201e;" horiz-adv-x="940" d="M127 0h113l-80 -213h162l79 213v274h-274v-274zM539 0h112l-80 -213h162l80 213v274h-274v-274z" />
<glyph unicode="&#x2022;" horiz-adv-x="1638" d="M475 713q0 -141 101.5 -242.5t242.5 -101.5t242.5 101t101.5 243q0 141 -101 242.5t-243 101.5q-141 0 -242.5 -101.5t-101.5 -242.5z" />
<glyph unicode="&#x2026;" horiz-adv-x="1708" d="M147 0h275v274h-275v-274zM717 0h274v274h-274v-274zM1286 0h275v274h-275v-274z" />
<glyph unicode="&#x202f;" horiz-adv-x="358" />
<glyph unicode="&#x2039;" horiz-adv-x="577" d="M104 463v192l353 310v-258l-168 -148l168 -147v-258z" />
<glyph unicode="&#x203a;" horiz-adv-x="577" d="M121 154l352 309v192l-352 310v-258l168 -148l-168 -147v-258z" />
<glyph unicode="&#x205f;" horiz-adv-x="447" />
<glyph unicode="&#x20ac;" horiz-adv-x="1226" d="M78 784l35 136h129v28q0 231 142 368.5t372 137.5q113 0 207 -35t161 -98l-149 -162q-43 45 -101.5 66.5t-117.5 21.5q-111 0 -205 -73.5t-94 -225.5v-28h532l-35 -136h-497v-133h463l-35 -135h-428v-31q0 -152 94 -225.5t205 -73.5q59 0 117.5 21.5t101.5 66.5l149 -161 q-68 -63 -162 -98t-206 -35q-229 0 -371.5 137t-142.5 368v31h-158l35 135h123v133h-164z" />
<glyph unicode="&#x2122;" horiz-adv-x="1540" d="M2 1268h231v-666h175v666h231v166h-637v-166zM721 602h168v508l135 -285h133l135 285v-508h168v832h-170l-200 -418l-201 418h-168v-832z" />
<glyph unicode="&#x25fc;" horiz-adv-x="1054" d="M0 0v1055h1055v-1055h-1055z" />
</font>
</defs>
</svg>
