<?xml version="1.0" standalone="no"?>
<!DOCTYPE svg PUBLIC "-//W3C//DTD SVG 1.1//EN" "http://www.w3.org/Graphics/SVG/1.1/DTD/svg11.dtd" >
<svg xmlns="http://www.w3.org/2000/svg" xmlns:xlink="http://www.w3.org/1999/xlink" version="1.1">
<metadata></metadata>
<defs>
<font id="simplon_bpbold" horiz-adv-x="1142" >
<font-face units-per-em="2048" ascent="1671" descent="-377" />
<missing-glyph horiz-adv-x="430" />
<glyph unicode="&#xfb01;" horiz-adv-x="1220" d="M27 813h149v-813h270v813h261v244h-261v49q0 37 14.5 60.5t63.5 23.5h183v244h-261q-141 0 -205.5 -72t-64.5 -199v-106h-149v-244zM827 0h271v1057h-271v-1057zM827 1194h271v240h-271v-240z" />
<glyph unicode="&#xfb02;" horiz-adv-x="1277" d="M27 813h149v-813h270v813h261v244h-261v49q0 37 14.5 60.5t63.5 23.5h183v244h-261q-141 0 -205.5 -72t-64.5 -199v-106h-149v-244zM821 270v1164h271v-1106q0 -37 14 -60.5t63 -23.5h54v-244h-131q-141 0 -206 71.5t-65 198.5z" />
<glyph unicode="&#xfb03;" horiz-adv-x="1892" d="M27 813h149v-813h270v813h402v-813h270v813h260v244h-260v49q0 37 14.5 60.5t63.5 23.5h182v244h-260q-141 0 -205.5 -72t-64.5 -199v-106h-402v49q0 37 14.5 60.5t63.5 23.5h183v244h-261q-141 0 -205.5 -72t-64.5 -199v-106h-149v-244zM1499 0h270v1057h-270v-1057z M1499 1194h270v240h-270v-240z" />
<glyph unicode="&#xfb04;" horiz-adv-x="1951" d="M27 813h149v-813h270v813h402v-813h270v813h260v244h-260v49q0 37 14.5 60.5t63.5 23.5h182v244h-260q-141 0 -205.5 -72t-64.5 -199v-106h-402v49q0 37 14.5 60.5t63.5 23.5h183v244h-261q-141 0 -205.5 -72t-64.5 -199v-106h-149v-244zM1495 270v1164h270v-1106 q0 -37 14.5 -60.5t63.5 -23.5h53v-244h-131q-141 0 -205.5 71.5t-64.5 198.5z" />
<glyph horiz-adv-x="0" />
<glyph horiz-adv-x="682" />
<glyph unicode=" "  horiz-adv-x="430" />
<glyph unicode="&#x09;" horiz-adv-x="430" />
<glyph unicode="&#xa0;" horiz-adv-x="430" />
<glyph unicode="!" horiz-adv-x="614" d="M143 0h328v328h-328v-328zM172 430h270v1004h-270v-1004z" />
<glyph unicode="&#x22;" horiz-adv-x="1009" d="M133 975h270v459h-270v-459zM606 975h271v459h-271v-459z" />
<glyph unicode="#" horiz-adv-x="1433" d="M109 367h127l-91 -367h261l90 367h264l-90 -367h260l90 367h254v245h-193l54 209h190v246h-129l92 367h-260l-92 -367h-264l92 367h-260l-92 -367h-252v-246h190l-53 -209h-188v-245zM557 612l53 209h264l-53 -209h-264z" />
<glyph unicode="$" horiz-adv-x="1079" d="M53 453q8 -203 127 -330t318 -141v-187h88v187q197 10 312.5 120.5t115.5 278.5q0 150 -77 263.5t-263 176.5l-88 29v354q51 -12 89 -53t48 -109h270q-20 172 -127.5 284t-279.5 126v186h-88v-186q-176 -10 -301 -114.5t-125 -290.5q0 -158 92 -266.5t252 -162.5l82 -28 v-363q-82 14 -127 80t-47 146h-271zM342 1047q0 72 43 112.5t113 48.5v-327l-9 4q-57 20 -102 59t-45 103zM586 225v336l6 -2q74 -25 112.5 -67.5t38.5 -110.5q0 -63 -43 -105.5t-114 -50.5z" />
<glyph unicode="%" horiz-adv-x="1812" d="M109 893q0 -123 68.5 -213t221.5 -90q154 0 221.5 90t67.5 213v250q0 123 -67.5 213t-221.5 90t-222 -90t-68 -213v-250zM299 862v312q0 43 22.5 72.5t77.5 29.5q53 0 76 -29.5t23 -72.5v-312q0 -43 -22.5 -72.5t-76.5 -29.5q-55 0 -77.5 29.5t-22.5 72.5zM305 0h217 l985 1434h-217zM1124 291q0 -123 69 -213t222 -90q154 0 221.5 90t67.5 213v250q0 123 -67.5 213t-221.5 90t-222.5 -90t-68.5 -213v-250zM1315 260v311q0 43 22.5 73t77.5 30q53 0 75.5 -30t22.5 -73v-311q0 -43 -22.5 -72.5t-75.5 -29.5q-55 0 -77.5 29.5t-22.5 72.5z" />
<glyph unicode="&#x26;" horiz-adv-x="1253" d="M80 403q0 -184 125 -293.5t340 -109.5h475v592h248v244h-248v163h-270v-163h-199q-92 0 -146.5 44t-54.5 134t54.5 133t146.5 43h199v244h-218q-219 0 -335.5 -116t-116.5 -294q0 -80 37 -172t114 -141q-70 -45 -110.5 -126t-40.5 -182zM350 418q0 84 52.5 129t140.5 45 h207v-348h-207q-88 0 -140.5 45t-52.5 129z" />
<glyph unicode="'" horiz-adv-x="536" d="M133 975h270v459h-270v-459z" />
<glyph unicode="(" horiz-adv-x="610" d="M166 -82q0 -127 64.5 -198.5t205.5 -71.5h131v250h-73q-49 0 -63.5 23.5t-14.5 60.5v1118q0 37 14 60.5t64 23.5h73v250h-131q-141 0 -205.5 -72t-64.5 -199v-1245z" />
<glyph unicode=")" horiz-adv-x="610" d="M43 -102h74q49 0 63.5 23.5t14.5 60.5v1118q0 37 -14.5 60.5t-63.5 23.5h-74v250h131q141 0 205.5 -72t64.5 -199v-1245q0 -127 -64.5 -198.5t-205.5 -71.5h-131v250z" />
<glyph unicode="*" horiz-adv-x="1097" d="M106 1024l78 233l242 -77v254h246v-254l241 77l78 -233l-241 -78l147 -207l-199 -145l-147 207l-152 -207l-198 145l147 207z" />
<glyph unicode="+" d="M100 440h349v-348h245v348h348v246h-348v348h-245v-348h-349v-246z" />
<glyph unicode="," horiz-adv-x="614" d="M143 0h136l-89 -233h193l88 233v328h-328v-328z" />
<glyph unicode="-" horiz-adv-x="757" d="M82 440h594v246h-594v-246z" />
<glyph unicode="." horiz-adv-x="614" d="M143 0h328v328h-328v-328z" />
<glyph unicode="/" horiz-adv-x="772" d="M-41 0h274l580 1434h-274z" />
<glyph unicode="0" d="M100 465q0 -219 123 -352t348 -133t348 133t123 352v504q0 219 -122.5 352t-348.5 133q-225 0 -348 -133t-123 -352v-504zM371 430v574q0 94 52 150t148 56t148.5 -56t52.5 -150v-574q0 -94 -52 -150.5t-149 -56.5q-96 0 -148 56.5t-52 150.5z" />
<glyph unicode="1" horiz-adv-x="753" d="M66 868l274 238v-1106h270v1434h-270l-274 -238v-328z" />
<glyph unicode="2" horiz-adv-x="1087" d="M68 0v244l540 526q66 63 99.5 127t33.5 127q0 78 -52 132t-148 54t-149.5 -56t-53.5 -150v-21h-270v4q6 211 128.5 339t344.5 128q215 0 342 -120t127 -306q0 -141 -60.5 -248.5t-165.5 -210.5l-333 -325h559v-244h-942z" />
<glyph unicode="3" horiz-adv-x="1099" d="M66 408v2h268v-2q6 -82 63.5 -133.5t147.5 -51.5q88 0 140 47t52 131q0 88 -58 139.5t-153 51.5h-118v244h118q98 0 154.5 44t56.5 124q0 94 -52 150t-148 56q-90 0 -143.5 -51t-59.5 -133v-2h-268v2q14 195 136 311.5t335 116.5q219 0 345 -128t126 -312q0 -80 -37 -164 t-115 -139q70 -45 111 -142.5t41 -181.5q0 -190 -125 -298.5t-340 -108.5q-213 0 -338 116.5t-139 311.5z" />
<glyph unicode="4" horiz-adv-x="1064" d="M0 326h618v-326h271v326h149v239h-149v869h-271l-618 -869v-239zM313 565l305 428v-428h-305z" />
<glyph unicode="5" horiz-adv-x="1101" d="M100 408q14 -195 133 -311.5t351 -116.5q201 0 329.5 108.5t128.5 298.5v66q0 219 -117.5 352t-332.5 133q-57 0 -115.5 -14.5t-87.5 -32.5v299h598v244h-868v-850h270q20 53 67.5 81.5t114.5 28.5q96 0 148.5 -56t52.5 -151v-77q0 -82 -50 -134.5t-151 -52.5 q-88 0 -142 51.5t-60 133.5v2h-269v-2z" />
<glyph unicode="6" horiz-adv-x="1130" d="M100 453v516q0 219 123 352t348 133q213 0 334 -116.5t135 -311.5v-2h-268v2q-6 82 -58 133t-143 51q-96 0 -148 -56t-52 -150v-144q27 20 84 42t129 22q215 0 336.5 -131t121.5 -338v-4q0 -213 -123.5 -342t-347.5 -129q-223 0 -347 130t-124 343zM371 430 q0 -94 52 -150.5t148 -56.5t148.5 56.5t52.5 150.5v43q0 94 -52 150.5t-149 56.5q-94 0 -146 -54.5t-54 -144.5v-51z" />
<glyph unicode="7" horiz-adv-x="954" d="M6 1190h645l-446 -1190h284l447 1190v244h-930v-244z" />
<glyph unicode="8" horiz-adv-x="1126" d="M92 416q0 90 36 173t103 134q-66 59 -95.5 135t-29.5 166q0 197 126 313.5t331 116.5t331 -116.5t126 -313.5q0 -90 -29.5 -166t-95.5 -135q68 -51 103.5 -134t35.5 -173q0 -203 -135 -319.5t-336 -116.5t-336 116.5t-135 319.5zM362 416q0 -84 56.5 -138.5t144.5 -54.5 t144.5 54.5t56.5 138.5q0 86 -56.5 139t-144.5 53t-144.5 -53t-56.5 -139zM377 1024q0 -74 49 -130t137 -56t137.5 56t49.5 130t-49.5 130t-137.5 56t-137 -56t-49 -130z" />
<glyph unicode="9" horiz-adv-x="1130" d="M88 979v4q0 213 124 342t347 129t347 -130t124 -343v-516q0 -219 -123 -352t-348 -133q-213 0 -334 116.5t-135 311.5v2h268v-2q6 -82 58.5 -133.5t142.5 -51.5q96 0 148.5 56.5t52.5 150.5v143q-27 -20 -84.5 -41.5t-128.5 -21.5q-215 0 -337 131t-122 338zM358 961 q0 -94 52.5 -150.5t148.5 -56.5q94 0 146.5 54t54.5 144v52q0 94 -52.5 150t-148.5 56t-148.5 -56t-52.5 -150v-43z" />
<glyph unicode=":" horiz-adv-x="614" d="M143 0h328v328h-328v-328zM143 729h328v328h-328v-328z" />
<glyph unicode=";" horiz-adv-x="614" d="M143 0h136l-89 -233h193l88 233v328h-328v-328zM143 729h328v328h-328v-328z" />
<glyph unicode="&#x3c;" d="M100 393l942 -403v268l-636 272l636 273v268l-942 -403v-275z" />
<glyph unicode="=" d="M100 195h942v245h-942v-245zM100 686v246h942v-246h-942z" />
<glyph unicode="&#x3e;" d="M100 -10v268l637 272l-637 273v268l942 -403v-275z" />
<glyph unicode="?" horiz-adv-x="1079" d="M55 1024h269v4q8 82 60 132t140 50q96 0 148.5 -56t52.5 -150q0 -70 -34 -112t-66 -71l-107 -98q-76 -70 -102.5 -118t-26.5 -130v-45h270v8q0 33 15.5 57.5t56.5 63.5l107 98q57 53 107 138.5t50 191.5q0 211 -125 339t-346 128q-211 0 -331.5 -115.5t-137.5 -310.5v-4z M360 0h328v328h-328v-328z" />
<glyph unicode="@" horiz-adv-x="1916" d="M113 432q0 -449 249.5 -639t595.5 -190q135 0 260 27.5t230 86.5l-123 226q-70 -45 -163 -69t-204 -24q-287 0 -441.5 152t-154.5 424v205q0 272 155 423.5t441 151.5q287 0 441.5 -151.5t154.5 -423.5v-334q0 -39 -18 -54.5t-45 -15.5t-44 15.5t-17 54.5v303 q0 219 -123 352t-349 133q-193 0 -309.5 -97t-148.5 -263h272q20 53 68.5 85t117.5 32q82 0 132.5 -42t64.5 -114q-119 -8 -258 -24.5t-217 -53.5q-111 -51 -156 -125.5t-45 -189.5q0 -145 103.5 -229t287.5 -84q98 0 174 31.5t115 88.5q47 -55 126 -87.5t206 -32.5 q141 0 227 79.5t86 198.5v367q0 449 -249.5 639t-596.5 190q-346 0 -595.5 -190.5t-249.5 -638.5v-193zM750 324q0 33 12 53t45 37q39 20 138 30.5t214 18.5v-35q0 -100 -72.5 -155.5t-177.5 -55.5q-90 0 -124.5 34t-34.5 73z" />
<glyph unicode="A" horiz-adv-x="1282" d="M-2 0h287l102 289h508l102 -289h287l-512 1434h-262zM481 549l160 465l160 -465h-320z" />
<glyph unicode="B" horiz-adv-x="1280" d="M133 0h627q219 0 336.5 114.5t117.5 305.5q0 94 -44 175t-119 138q63 49 96 125t33 164q0 184 -118 298t-335 114h-594v-1434zM408 272v316h360q78 0 125 -41t47 -117t-44 -117t-128 -41h-360zM408 860v301h325q78 0 125 -37t47 -112q0 -74 -47 -113t-125 -39h-325z" />
<glyph unicode="C" horiz-adv-x="1241" d="M90 510v414q0 238 142.5 384t398.5 146q250 0 391 -137t149 -363h-276q-10 109 -85 168.5t-179 59.5q-111 0 -188.5 -67.5t-77.5 -190.5v-414q0 -123 77.5 -190.5t188.5 -67.5q104 0 179 58.5t85 168.5h276q-8 -225 -149 -362t-391 -137q-256 0 -398.5 146t-142.5 384z " />
<glyph unicode="D" horiz-adv-x="1304" d="M133 0v1434h541q256 0 398 -146.5t142 -384.5v-373q0 -238 -142 -384t-398 -146h-541zM408 272h266q111 0 188.5 68t77.5 190v373q0 123 -78 190.5t-188 67.5h-266v-889z" />
<glyph unicode="E" horiz-adv-x="1105" d="M133 0h873v272h-598v316h598v272h-598v301h598v273h-873v-1434z" />
<glyph unicode="F" horiz-adv-x="1085" d="M133 0h275v588h598v272h-598v301h598v273h-873v-1434z" />
<glyph unicode="G" horiz-adv-x="1257" d="M90 510v414q0 238 142.5 384t398.5 146q242 0 382 -130t156 -343h-276q-18 96 -91 148.5t-171 52.5q-111 0 -188.5 -67.5t-77.5 -190.5v-414q0 -123 77.5 -190.5t188.5 -67.5t188.5 67.5t77.5 190.5v37h-266v272h540v-309q0 -238 -142 -384t-398 -146t-398.5 146 t-142.5 384z" />
<glyph unicode="H" horiz-adv-x="1347" d="M133 0h275v588h532v-588h274v1434h-274v-574h-532v574h-275v-1434z" />
<glyph unicode="I" horiz-adv-x="540" d="M133 0h275v1434h-275v-1434z" />
<glyph unicode="J" horiz-adv-x="964" d="M-2 410q0 -213 112.5 -321.5t313.5 -108.5t313.5 108.5t112.5 321.5v1024h-275v-1016q0 -70 -35.5 -118t-115.5 -48q-66 0 -104.5 41t-45.5 117h-276z" />
<glyph unicode="K" horiz-adv-x="1320" d="M133 0h279v406l184 215l408 -621h335l-555 842l504 592h-350l-526 -619v619h-279v-1434z" />
<glyph unicode="L" horiz-adv-x="1005" d="M133 0h873v272h-598v1162h-275v-1434z" />
<glyph unicode="M" horiz-adv-x="1523" d="M133 0h273v901l247 -516h217l248 516v-901h273v1434h-275l-354 -738l-354 738h-275v-1434z" />
<glyph unicode="N" horiz-adv-x="1347" d="M133 0h275v924l532 -924h274v1434h-274v-924l-532 924h-275v-1434z" />
<glyph unicode="O" horiz-adv-x="1261" d="M90 510q0 -238 142.5 -384t398.5 -146t398 146t142 384v414q0 238 -142 384t-398 146t-398.5 -146.5t-142.5 -383.5v-414zM365 510v414q0 123 77.5 190.5t188.5 67.5t188.5 -67.5t77.5 -190.5v-414q0 -123 -78 -190.5t-188 -67.5q-111 0 -188.5 67.5t-77.5 190.5z" />
<glyph unicode="P" horiz-adv-x="1243" d="M133 0h275v440h311q254 0 374.5 151.5t120.5 346.5q0 197 -120.5 346.5t-374.5 149.5h-586v-1434zM408 713v448h311q113 0 167 -70.5t54 -152.5t-54.5 -153.5t-166.5 -71.5h-311z" />
<glyph unicode="Q" horiz-adv-x="1284" d="M90 510q0 -238 142.5 -384t398.5 -146q76 0 142.5 13t121.5 40l121 -125l186 182l-110 113q39 63 59 141t20 166v414q0 238 -142 384t-398 146t-398.5 -146.5t-142.5 -383.5v-414zM365 510v414q0 123 77.5 190.5t188.5 67.5t188.5 -67.5t77.5 -190.5v-414q0 -25 -4 -47.5 t-10 -42.5l-138 141l-186 -182l121 -123q-12 -2 -24.5 -3t-24.5 -1q-111 0 -188.5 67.5t-77.5 190.5z" />
<glyph unicode="R" horiz-adv-x="1265" d="M133 0v1434h604q217 0 335 -115t118 -307q0 -160 -80 -266.5t-229 -141.5l356 -604h-315l-347 590h-167v-590h-275zM408 856h335q78 0 125 39t47 113q0 76 -47 114.5t-125 38.5h-335v-305z" />
<glyph unicode="S" horiz-adv-x="1107" d="M43 453h283q12 -90 78.5 -145.5t168.5 -55.5q90 0 147.5 35t57.5 108q0 59 -35.5 95t-111.5 57l-242 65q-164 45 -246 156t-82 268q0 213 144.5 315.5t331.5 102.5q213 0 343 -114.5t152 -297.5h-282q-18 72 -83 106t-135 34q-86 0 -141 -35t-55 -111q0 -63 43 -95 t100 -46l234 -64q166 -45 253 -150.5t87 -285.5q0 -193 -124 -304t-356 -111q-233 0 -376.5 130t-153.5 343z" />
<glyph unicode="T" horiz-adv-x="1077" d="M-2 1161h399v-1161h283v1161h399v273h-1081v-273z" />
<glyph unicode="U" horiz-adv-x="1310" d="M115 510q0 -238 142 -384t398 -146t398.5 146t142.5 384v924h-274v-924q0 -123 -78 -190.5t-189 -67.5t-188.5 67.5t-77.5 190.5v924h-274v-924z" />
<glyph unicode="V" horiz-adv-x="1286" d="M-2 1434h289l356 -998l356 998h289l-512 -1434h-266z" />
<glyph unicode="W" horiz-adv-x="1540" d="M25 1434h276l166 -971l170 766h266l170 -766l166 971h277l-265 -1434h-297l-184 831l-184 -831h-297z" />
<glyph unicode="X" horiz-adv-x="1273" d="M6 0l475 741l-444 693h313l287 -451l287 451h313l-444 -693l475 -741h-314l-317 504l-318 -504h-313z" />
<glyph unicode="Y" horiz-adv-x="1241" d="M-25 1434l508 -912v-522h275v522l508 912h-312l-333 -598l-334 598h-312z" />
<glyph unicode="Z" horiz-adv-x="1193" d="M49 0h1092v272h-727l716 889v273h-1071v-273h707l-717 -889v-272z" />
<glyph unicode="[" horiz-adv-x="616" d="M166 -352h401v250h-151v1286h151v250h-401v-1786z" />
<glyph unicode="\" horiz-adv-x="772" d="M-41 1434h274l580 -1434h-274z" />
<glyph unicode="]" horiz-adv-x="616" d="M49 -102h152v1286h-152v250h402v-1786h-402v250z" />
<glyph unicode="^" horiz-adv-x="1282" d="M102 614h283l256 512l256 -512h283l-410 820h-258z" />
<glyph unicode="_" horiz-adv-x="880" d="M-31 -70v-245h942v245h-942z" />
<glyph unicode="`" horiz-adv-x="657" d="M78 1434h352l123 -265h-234z" />
<glyph unicode="a" d="M84 293q0 -145 102.5 -229t282.5 -84q121 0 189.5 40.5t105.5 100.5v-121h270v600q0 219 -123 352t-348 133q-193 0 -309.5 -97t-149.5 -263h273q20 53 68.5 85t117.5 32q82 0 132 -42t65 -112v-2q-119 -8 -258.5 -24.5t-216.5 -53.5q-111 -51 -156 -125.5t-45 -189.5z M354 324q0 33 12.5 53t45.5 37q39 20 138 30.5t214 18.5v-35q0 -100 -73 -155.5t-177 -55.5q-90 0 -125 34t-35 73z" />
<glyph unicode="b" horiz-adv-x="1155" d="M123 0v1434h270v-469q35 53 106.5 86.5t141.5 33.5q160 0 292 -113.5t132 -344.5v-189q0 -231 -132 -344.5t-292 -113.5q-70 0 -141.5 33.5t-106.5 86.5v-100h-270zM393 449q0 -106 62.5 -155.5t138.5 -49.5t138.5 49t62.5 156v167q0 106 -62.5 155.5t-138.5 49.5 t-138.5 -49t-62.5 -156v-167z" />
<glyph unicode="c" horiz-adv-x="1101" d="M90 465v135q0 219 123 352t348 133q205 0 326 -110.5t141 -294.5h-270q-12 74 -62.5 118t-134.5 44q-96 0 -148.5 -56.5t-52.5 -150.5v-205q0 -94 52.5 -150.5t148.5 -56.5q84 0 135.5 43t61.5 119h270q-20 -184 -141 -294.5t-326 -110.5q-225 0 -348 133t-123 352z" />
<glyph unicode="d" horiz-adv-x="1155" d="M90 438q0 -231 132 -344.5t292 -113.5q70 0 141.5 33.5t106.5 86.5v-100h270v1434h-270v-469q-35 53 -106.5 86.5t-141.5 33.5q-160 0 -292 -113.5t-132 -344.5v-189zM360 449v167q0 106 62.5 155.5t138.5 49.5t138.5 -49t62.5 -156v-167q0 -106 -62.5 -155.5 t-138.5 -49.5t-138.5 49t-62.5 156z" />
<glyph unicode="e" horiz-adv-x="1120" d="M90 465q0 -219 123 -352t348 -133q193 0 310.5 97t150.5 263h-274q-20 -53 -68.5 -85t-118.5 -32q-96 0 -148.5 56.5t-52.5 150.5v6h672v164q0 219 -123 352t-348 133t-348 -133t-123 -352v-135zM360 659v3q8 82 59.5 131t141.5 49t141.5 -49.5t57.5 -130.5v-3h-400z" />
<glyph unicode="f" horiz-adv-x="704" d="M27 813h149v-813h270v813h261v244h-261v49q0 37 14.5 60.5t63.5 23.5h183v244h-261q-141 0 -205.5 -72t-64.5 -199v-106h-149v-244z" />
<glyph unicode="g" horiz-adv-x="1153" d="M88 514q0 -231 132 -345t292 -114q70 0 141.5 34t106.5 87v-123q0 -94 -52.5 -150.5t-148.5 -56.5q-82 0 -131 39t-63 109h-271q25 -178 144.5 -284.5t320.5 -106.5q225 0 348 133t123 352v969h-270v-92q-35 53 -106.5 86.5t-141.5 33.5q-160 0 -292 -113.5t-132 -344.5 v-113zM358 524v92q0 106 62.5 155.5t138.5 49.5t138.5 -49t62.5 -156v-92q0 -106 -62.5 -155.5t-138.5 -49.5t-138.5 49.5t-62.5 155.5z" />
<glyph unicode="h" horiz-adv-x="1173" d="M123 0v1434h270v-469q35 53 106.5 86.5t141.5 33.5q160 0 292 -113.5t132 -344.5v-627h-270v616q0 106 -62.5 155.5t-138.5 49.5t-138.5 -49t-62.5 -156v-616h-270z" />
<glyph unicode="i" horiz-adv-x="516" d="M123 0h270v1057h-270v-1057zM123 1194h270v240h-270v-240z" />
<glyph unicode="j" horiz-adv-x="516" d="M-8 -133v-244h131q141 0 205.5 72t64.5 199v1163h-270v-1106q0 -37 -14.5 -60.5t-63.5 -23.5h-53zM123 1194h270v240h-270v-240z" />
<glyph unicode="k" horiz-adv-x="1103" d="M123 0h270v332l101 110l303 -442h317l-438 641l383 416h-328l-338 -369v746h-270v-1434z" />
<glyph unicode="l" horiz-adv-x="575" d="M119 270v1164h270v-1106q0 -37 14.5 -60.5t63.5 -23.5h53v-244h-131q-141 0 -205.5 71.5t-64.5 198.5z" />
<glyph unicode="m" horiz-adv-x="1820" d="M123 0v1057h270v-88q39 53 104.5 84.5t135.5 31.5q82 0 155.5 -32.5t129.5 -106.5q57 70 139 104.5t190 34.5q201 0 333 -113.5t132 -344.5v-627h-270v616q0 104 -61.5 154.5t-133.5 50.5t-133 -50t-61 -155v-616h-271v616q0 104 -61.5 154.5t-132.5 50.5 q-72 0 -133.5 -50t-61.5 -155v-616h-270z" />
<glyph unicode="n" horiz-adv-x="1173" d="M123 0v1057h270v-92q35 53 106.5 86.5t141.5 33.5q160 0 292 -113.5t132 -344.5v-627h-270v616q0 106 -62.5 155.5t-138.5 49.5t-138.5 -49t-62.5 -156v-616h-270z" />
<glyph unicode="o" horiz-adv-x="1122" d="M90 465q0 -219 123 -352t348 -133t348 133t123 352v135q0 219 -123 352t-348 133t-348 -133t-123 -352v-135zM360 430v205q0 94 52.5 150.5t148.5 56.5t148.5 -56.5t52.5 -150.5v-205q0 -94 -52.5 -150.5t-148.5 -56.5t-148.5 56.5t-52.5 150.5z" />
<glyph unicode="p" horiz-adv-x="1155" d="M123 -377v1434h270v-92q35 53 106.5 86.5t141.5 33.5q160 0 292 -113.5t132 -344.5v-189q0 -231 -132 -344.5t-292 -113.5q-70 0 -141.5 33.5t-106.5 86.5v-477h-270zM393 449q0 -106 62.5 -155.5t138.5 -49.5t138.5 49t62.5 156v167q0 106 -62.5 155.5t-138.5 49.5 t-138.5 -49t-62.5 -156v-167z" />
<glyph unicode="q" horiz-adv-x="1155" d="M90 438q0 -231 132 -344.5t292 -113.5q70 0 141.5 33.5t106.5 86.5v-477h270v1434h-270v-92q-35 53 -106.5 86.5t-141.5 33.5q-160 0 -292 -113.5t-132 -344.5v-189zM360 449v167q0 106 62.5 155.5t138.5 49.5t138.5 -49t62.5 -156v-167q0 -106 -62.5 -155.5 t-138.5 -49.5t-138.5 49t-62.5 156z" />
<glyph unicode="r" horiz-adv-x="745" d="M123 0v1057h270v-115q23 51 87.5 92t158.5 41h82v-264h-127q-76 0 -138.5 -49t-62.5 -156v-606h-270z" />
<glyph unicode="s" horiz-adv-x="976" d="M49 342h270q8 -61 70 -90t127 -29q39 0 86 15.5t47 66.5q0 33 -23.5 52.5t-70.5 29.5l-221 49q-86 20 -173 95t-87 229t120.5 239.5t282.5 85.5q160 0 277.5 -81.5t132.5 -260.5h-277q-10 51 -50 75t-91 24q-57 0 -90 -21.5t-35 -58.5q0 -33 24.5 -51.5t57.5 -26.5 l238 -53q86 -20 171 -91t85 -235q0 -176 -123 -250.5t-289 -74.5q-164 0 -307.5 88t-151.5 274z" />
<glyph unicode="t" horiz-adv-x="753" d="M23 813v244h149v239h270v-239h260v-244h-260v-485q0 -37 14.5 -60.5t63.5 -23.5h182v-244h-260q-141 0 -205.5 71.5t-64.5 198.5v543h-149z" />
<glyph unicode="u" horiz-adv-x="1161" d="M109 438q0 -238 128 -348t275 -110q96 0 159.5 40.5t96.5 94.5v-115h270v1057h-270v-608q0 -104 -60.5 -154.5t-134.5 -50.5t-134 50t-60 155v608h-270v-619z" />
<glyph unicode="v" horiz-adv-x="1003" d="M-18 1057l380 -1057h279l381 1057h-285l-235 -674l-236 674h-284z" />
<glyph unicode="w" horiz-adv-x="1441" d="M-4 1057h280l158 -670l154 670h266l154 -670l157 670h281l-279 -1057h-274l-172 752l-172 -752h-275z" />
<glyph unicode="x" horiz-adv-x="1036" d="M0 0h309l209 324l209 -324h309l-358 543l342 514h-307l-195 -299l-194 299h-308l342 -514z" />
<glyph unicode="y" horiz-adv-x="1003" d="M-18 1057l376 -1057l-30 -86q-6 -16 -20.5 -31.5t-51.5 -15.5h-113v-244h201q141 0 180 79t82 198l416 1157h-285l-235 -674l-236 674h-284z" />
<glyph unicode="z" horiz-adv-x="905" d="M49 0h809v244h-469l455 569v244h-781v-244h441l-455 -569v-244z" />
<glyph unicode="{" horiz-adv-x="681" d="M80 416v250h74q49 0 63 23.5t14 60.5v413q0 127 64.5 199t206.5 72h131v-250h-74q-49 0 -63.5 -23.5t-14.5 -60.5v-414q0 -43 -9 -80t-40 -65q31 -31 40 -68t9 -78v-413q0 -37 14.5 -60.5t63.5 -23.5h74v-250h-131q-141 0 -206 71.5t-65 198.5v414q0 37 -14 60.5 t-63 23.5h-74z" />
<glyph unicode="|" horiz-adv-x="516" d="M133 -205h250v1639h-250v-1639z" />
<glyph unicode="}" horiz-adv-x="681" d="M49 -102v-250h131q141 0 206 71.5t65 198.5v414q0 37 14 60.5t63 23.5h74v250h-74q-49 0 -63 23.5t-14 60.5v413q0 127 -64.5 199t-206.5 72h-131v-250h74q49 0 63.5 -23.5t14.5 -60.5v-414q0 -43 9 -80t40 -65q-31 -31 -40 -68t-9 -78v-413q0 -37 -14.5 -60.5 t-63.5 -23.5h-74z" />
<glyph unicode="~" horiz-adv-x="1126" d="M92 567l158 -174q53 51 93 72.5t85 21.5q66 0 127 -47t156 -47q70 0 154.5 36t168.5 130l-157 174q-53 -51 -93.5 -72.5t-85.5 -21.5q-66 0 -127 47t-155 47q-70 0 -155 -35.5t-169 -130.5z" />
<glyph unicode="&#xa1;" horiz-adv-x="552" d="M113 729h327v328h-327v-328zM141 -377h271v1004h-271v-1004z" />
<glyph unicode="&#xa2;" horiz-adv-x="1126" d="M104 465v135q0 207 110 338t314 145v187h88v-187q186 -10 296 -118.5t130 -284.5h-270q-10 63 -50 106t-106 52v-613q66 10 107 52t49 108h270q-20 -176 -129.5 -284.5t-296.5 -118.5v-187h-88v187q-205 14 -314.5 145t-109.5 338zM375 430q0 -82 39 -136t114 -67v611 q-76 -14 -114.5 -67.5t-38.5 -135.5v-205z" />
<glyph unicode="&#xa3;" horiz-adv-x="1257" d="M102 0h1074v244h-684q4 4 8 19.5t4 37.5v336h401v164h-401v203q0 94 52 150t149 56q96 0 148 -56t52 -150v-19h271q-4 211 -127 340t-344 129q-225 0 -348.5 -133t-123.5 -352v-168h-131v-164h131v-309q0 -35 -13 -59.5t-56 -24.5h-62v-244z" />
<glyph unicode="&#xa4;" horiz-adv-x="1441" d="M102 190l115 -114l176 176q70 -51 153 -80t177 -29q92 0 175 28t153 79l174 -174l114 114l-174 175q51 70 81 153.5t30 177.5q0 92 -29.5 176t-81.5 154l174 176l-114 115l-174 -176q-70 51 -153 79.5t-175 28.5q-94 0 -177 -29.5t-153 -80.5l-176 178l-115 -115 l177 -178q-51 -70 -80 -153t-29 -175t28.5 -176t80.5 -153zM414 696q0 127 91 218.5t218 91.5t218 -91.5t91 -218.5t-91 -218t-218 -91t-218 91t-91 218z" />
<glyph unicode="&#xa5;" horiz-adv-x="1327" d="M18 1434l418 -748h-243v-164h335v-96h-335v-164h335v-262h271v262h334v164h-334v96h334v164h-242l418 748h-303l-342 -615l-342 615h-304z" />
<glyph unicode="&#xa6;" horiz-adv-x="516" d="M133 -205h250v694h-250v-694zM133 739h250v695h-250v-695z" />
<glyph unicode="&#xa7;" horiz-adv-x="1077" d="M96 543q0 -188 92.5 -271.5t192.5 -119.5l174 -62q63 -25 94 -56.5t31 -78.5q-2 -57 -41 -83t-98 -26t-103.5 34t-50.5 85h-260q14 -166 128 -264t286 -98q174 0 280.5 88t106.5 260q0 82 -25.5 147.5t-73.5 112.5q74 51 113 127t39 172q0 188 -93 271t-194 120l-207 74 q-35 14 -61.5 45t-26.5 76q0 57 42 85.5t100 28.5q45 0 84 -25.5t53 -74.5h256q-29 172 -132.5 258t-260.5 86q-184 0 -287.5 -102.5t-103.5 -249.5q0 -88 26.5 -151.5t69.5 -108.5q-74 -51 -112 -128t-38 -171zM344 539q0 59 48 105t132 54l99 -34q51 -18 80.5 -60.5 t29.5 -89.5q-2 -59 -50 -105.5t-132 -54.5l-96 35q-53 18 -82 60.5t-29 89.5z" />
<glyph unicode="&#xa8;" horiz-adv-x="884" d="M106 1182h271v239h-271v-239zM508 1182h270v239h-270v-239z" />
<glyph unicode="&#xa9;" horiz-adv-x="1597" d="M61 717q0 -305 216.5 -521t521.5 -216t521 216t216 521t-216 521t-521 216t-521.5 -216t-216.5 -521zM283 717q0 211 151.5 362.5t364.5 151.5t362.5 -151.5t149.5 -362.5t-149.5 -362.5t-362.5 -151.5t-364.5 151.5t-151.5 362.5zM500 625q0 -123 75.5 -202t223.5 -79 q147 0 223 76t78 196h-193q-4 -39 -33.5 -61.5t-74.5 -22.5t-77 26t-32 67v176q0 39 32 64.5t77 25.5t74.5 -23.5t33.5 -60.5h193q-2 121 -78 196.5t-223 75.5t-223 -77.5t-76 -200.5v-176z" />
<glyph unicode="&#xaa;" horiz-adv-x="686" d="M41 991q0 -80 55.5 -131t157.5 -51q80 0 122 26.5t60 59.5v-74h191v328q0 123 -69 212t-222 89q-127 0 -192.5 -61.5t-86.5 -149.5h191q12 16 32.5 29.5t55.5 13.5q43 0 64.5 -17.5t31.5 -41.5q-84 -4 -171 -16.5t-144 -55.5q-35 -25 -55.5 -62.5t-20.5 -97.5zM231 1016 q0 10 5.5 19t19.5 16q16 8 72.5 14t107.5 8q0 -43 -39 -71.5t-92 -28.5q-45 0 -59.5 15.5t-14.5 27.5z" />
<glyph unicode="&#xab;" horiz-adv-x="995" d="M86 442v234l363 317v-331l-117 -103l117 -102v-332zM530 442v234l363 317v-331l-117 -103l117 -102v-332z" />
<glyph unicode="&#xac;" d="M100 440h697v-348h245v594h-942v-246z" />
<glyph unicode="&#xad;" horiz-adv-x="757" d="M82 440h594v246h-594v-246z" />
<glyph unicode="&#xae;" horiz-adv-x="1597" d="M61 717q0 -305 216.5 -521t521.5 -216t521 216t216 521t-216 521t-521 216t-521.5 -216t-216.5 -521zM283 717q0 211 151.5 362.5t364.5 151.5t362.5 -151.5t149.5 -362.5t-149.5 -362.5t-362.5 -151.5t-364.5 151.5t-151.5 362.5zM514 354v715h340q121 0 183.5 -59.5 t62.5 -163.5q0 -82 -37 -136.5t-107 -74.5l166 -281h-219l-155 267h-43v-267h-191zM705 807h153q27 0 39 9t12 28q0 18 -12 27.5t-39 9.5h-153v-74z" />
<glyph unicode="&#xaf;" horiz-adv-x="899" d="M100 1196h699v213h-699v-213z" />
<glyph unicode="&#xb0;" horiz-adv-x="786" d="M74 1124q0 -131 94 -225t225 -94t225.5 94t94.5 225t-94.5 225.5t-225.5 94.5t-225 -94.5t-94 -225.5zM272 1124q0 51 35 87t86 36t86 -35.5t35 -87.5q0 -51 -35 -87t-86 -36t-86 36t-35 87z" />
<glyph unicode="&#xb1;" d="M100 0h942v246h-942v-246zM100 573v246h349v238h245v-238h348v-246h-348v-237h-245v237h-349z" />
<glyph unicode="&#xb2;" horiz-adv-x="659" d="M37 821h579v170h-305l178 150q70 57 98.5 114.5t28.5 139.5q0 111 -71.5 190.5t-216.5 79.5q-150 0 -218.5 -84t-72.5 -195h190v9q0 41 23.5 70.5t77.5 29.5q55 0 77.5 -29.5t22.5 -74.5q0 -23 -9 -44.5t-52 -60.5l-330 -295v-170z" />
<glyph unicode="&#xb3;" horiz-adv-x="665" d="M35 1059h188q6 -31 33 -55.5t74 -24.5q43 0 68.5 21.5t25.5 60.5q0 45 -32 66.5t-79 21.5h-73v168h73q55 0 83 19.5t28 52.5q0 47 -22.5 76.5t-75.5 29.5q-49 0 -73 -24.5t-30 -55.5h-188q14 100 81.5 175t209.5 75q147 0 217.5 -84t70.5 -182q0 -35 -17 -83t-62 -85 q39 -27 59 -86.5t20 -97.5q0 -102 -70.5 -170t-215.5 -68q-141 0 -210 74.5t-83 175.5z" />
<glyph unicode="&#xb4;" horiz-adv-x="657" d="M104 1169h234l242 265h-353z" />
<glyph unicode="&#xb5;" horiz-adv-x="1175" d="M123 -377v1434h270v-608q0 -104 60.5 -154.5t134.5 -50.5t134 50t60 155v608h271v-1057h-271v72q-33 -45 -86 -68.5t-108 -23.5t-108.5 23.5t-86.5 68.5v-449h-270z" />
<glyph unicode="&#xb6;" horiz-adv-x="1333" d="M37 1024q0 -168 119.5 -289t287.5 -121h21v-792h250v1362h225v-1362h250v1612h-746q-168 0 -287.5 -122t-119.5 -288z" />
<glyph unicode="&#xb7;" horiz-adv-x="634" d="M154 420h327v328h-327v-328z" />
<glyph unicode="&#xb8;" horiz-adv-x="552" d="M82 -324l117 324h227l-78 -324h-266z" />
<glyph unicode="&#xb9;" horiz-adv-x="464" d="M35 1264l160 137v-580h190v832h-190l-160 -140v-249z" />
<glyph unicode="&#xba;" horiz-adv-x="684" d="M51 1112q0 -123 68.5 -213t222.5 -90t221.5 90t67.5 213v37q0 123 -67.5 212t-221.5 89t-222.5 -89t-68.5 -212v-37zM242 1081v97q0 43 22.5 73.5t77.5 30.5q53 0 75.5 -30.5t22.5 -73.5v-97q0 -43 -22.5 -72.5t-75.5 -29.5q-55 0 -77.5 29.5t-22.5 72.5z" />
<glyph unicode="&#xbb;" horiz-adv-x="995" d="M94 125l363 317v234l-363 317v-331l117 -103l-117 -102v-332zM539 125l362 317v234l-362 317v-331l116 -103l-116 -102v-332z" />
<glyph unicode="&#xbc;" horiz-adv-x="1812" d="M223 1044l160 138v-580h190v832h-190l-160 -140v-250zM305 0h217l985 1434h-217zM1102 172h346v-172h190v172h88v168h-88v491h-190l-346 -491v-168zM1327 340l121 176v-176h-121z" />
<glyph unicode="&#xbd;" horiz-adv-x="1812" d="M223 1044l160 138v-580h190v832h-190l-160 -140v-250zM305 0h217l985 1434h-217zM1124 0h580v170h-305l178 149q70 57 98.5 115t28.5 139q0 111 -71.5 191t-217.5 80q-147 0 -216 -83t-75 -196h191v8q0 41 23.5 71t76.5 30q55 0 78 -30t23 -75q0 -23 -9.5 -44t-52.5 -60 l-330 -295v-170z" />
<glyph unicode="&#xbe;" horiz-adv-x="1812" d="M109 840h188q6 -31 32.5 -55.5t73.5 -24.5q43 0 69 21.5t26 60.5q0 45 -32 66.5t-79 21.5h-74v168h74q55 0 83 19.5t28 51.5q0 47 -22.5 77t-76.5 30q-49 0 -72.5 -24.5t-29.5 -55.5h-188q14 100 81.5 175t208.5 75q147 0 218 -84t71 -182q0 -35 -17.5 -83t-62.5 -85 q39 -27 59.5 -86.5t20.5 -98.5q0 -102 -70.5 -169.5t-216.5 -67.5q-141 0 -209.5 74.5t-82.5 175.5zM305 0h217l985 1434h-217zM1102 172h346v-172h190v172h88v168h-88v491h-190l-346 -491v-168zM1327 340l121 176v-176h-121z" />
<glyph unicode="&#xbf;" horiz-adv-x="1042" d="M68 70q0 -211 124.5 -339t346.5 -128q213 0 333.5 116.5t135.5 313.5h-269q-6 -84 -58 -135.5t-142 -51.5q-96 0 -148.5 56.5t-52.5 150.5q0 70 34 112t66 71l107 98q76 70 102.5 118t26.5 130v45h-271v-9q0 -33 -15 -57t-56 -63l-107 -99q-57 -53 -107 -138t-50 -191z M375 729h327v328h-327v-328z" />
<glyph unicode="&#xc0;" horiz-adv-x="1282" d="M-2 0h287l102 289h508l102 -289h287l-512 1434h-262zM301 1749h356l154 -223h-248zM481 549l160 465l160 -465h-320z" />
<glyph unicode="&#xc1;" horiz-adv-x="1282" d="M-2 0h287l102 289h508l102 -289h287l-512 1434h-262zM471 1526h248l262 223h-356zM481 549l160 465l160 -465h-320z" />
<glyph unicode="&#xc2;" horiz-adv-x="1282" d="M-2 0h287l102 289h508l102 -289h287l-512 1434h-262zM260 1526l268 223h226l268 -223h-291l-90 71l-90 -71h-291zM481 549l160 465l160 -465h-320z" />
<glyph unicode="&#xc3;" horiz-adv-x="1282" d="M-2 0h287l102 289h508l102 -289h287l-512 1434h-262zM272 1507h213q10 29 27.5 44.5t38.5 15.5q8 0 17.5 -2t19.5 -6l55 -27q33 -16 60.5 -22.5t64.5 -6.5q104 0 163.5 80t80.5 186h-213q-10 -29 -27.5 -44t-38.5 -15q-8 0 -17 2t-20 6l-55 27q-33 16 -60.5 22.5 t-64.5 6.5q-104 0 -163.5 -80t-80.5 -187zM481 549l160 465l160 -465h-320z" />
<glyph unicode="&#xc4;" horiz-adv-x="1282" d="M-2 0h287l102 289h508l102 -289h287l-512 1434h-262zM303 1518h275v239h-275v-239zM481 549l160 465l160 -465h-320zM705 1518h274v239h-274v-239z" />
<glyph unicode="&#xc5;" horiz-adv-x="1282" d="M-2 0h287l102 289h508l102 -289h287l-512 1434h-262zM481 549l160 465l160 -465h-320zM489 1636q0 -63 44.5 -107t107.5 -44t108.5 44t45.5 107t-45 108.5t-109 45.5q-63 0 -107.5 -45t-44.5 -109zM604 1636q0 14 11.5 25.5t25.5 11.5t25.5 -11t11.5 -26 q0 -14 -11.5 -25.5t-25.5 -11.5t-25.5 11.5t-11.5 25.5z" />
<glyph unicode="&#xc6;" horiz-adv-x="1798" d="M-16 0h303l147 324h391v-324h873v272h-598v316h598v272h-598v301h598v273h-1055zM557 586l268 585v-585h-268z" />
<glyph unicode="&#xc7;" horiz-adv-x="1241" d="M90 510v414q0 238 142.5 384t398.5 146q250 0 391 -137t149 -363h-276q-10 109 -85 168.5t-179 59.5q-111 0 -188.5 -67.5t-77.5 -190.5v-414q0 -123 77.5 -190.5t188.5 -67.5q104 0 179 58.5t85 168.5h276q-8 -199 -119.5 -331t-310.5 -160l-73 -312h-271l103 316 q-197 35 -303.5 174t-106.5 344z" />
<glyph unicode="&#xc8;" horiz-adv-x="1105" d="M133 0h873v272h-598v316h598v272h-598v301h598v273h-873v-1434zM229 1749h357l153 -223h-247z" />
<glyph unicode="&#xc9;" horiz-adv-x="1105" d="M133 0h873v272h-598v316h598v272h-598v301h598v273h-873v-1434zM399 1526h248l262 223h-356z" />
<glyph unicode="&#xca;" horiz-adv-x="1105" d="M133 0h873v272h-598v316h598v272h-598v301h598v273h-873v-1434zM188 1526l269 223h225l268 -223h-291l-90 71l-90 -71h-291z" />
<glyph unicode="&#xcb;" horiz-adv-x="1105" d="M133 0h873v272h-598v316h598v272h-598v301h598v273h-873v-1434zM231 1518h275v239h-275v-239zM633 1518h274v239h-274v-239z" />
<glyph unicode="&#xcc;" horiz-adv-x="538" d="M-72 1749h357l153 -223h-248zM131 0h275v1434h-275v-1434z" />
<glyph unicode="&#xcd;" horiz-adv-x="540" d="M100 1526h248l262 223h-356zM133 0h275v1434h-275v-1434z" />
<glyph unicode="&#xce;" horiz-adv-x="540" d="M-111 1526l269 223h225l268 -223h-291l-90 71l-90 -71h-291zM133 0h275v1434h-275v-1434z" />
<glyph unicode="&#xcf;" horiz-adv-x="540" d="M-68 1518h275v239h-275v-239zM133 0h275v1434h-275v-1434zM334 1518h274v239h-274v-239z" />
<glyph unicode="&#xd0;" horiz-adv-x="1327" d="M12 621v184h144v629h540q256 0 398.5 -146.5t142.5 -384.5v-373q0 -238 -142.5 -384t-398.5 -146h-540v621h-144zM430 272h266q111 0 189 68t78 190v373q0 123 -78 190.5t-189 67.5h-266v-356h266v-184h-266v-349z" />
<glyph unicode="&#xd1;" horiz-adv-x="1347" d="M133 0h275v924l532 -924h274v1434h-274v-924l-532 924h-275v-1434zM305 1507h213q10 29 27.5 44.5t38.5 15.5q8 0 17 -2t20 -6l55 -27q33 -16 60.5 -22.5t64.5 -6.5q104 0 163.5 80t79.5 186h-213q-10 -29 -27.5 -44t-37.5 -15q-8 0 -17.5 2t-19.5 6l-55 27 q-33 16 -60.5 22.5t-64.5 6.5q-104 0 -163.5 -80t-80.5 -187z" />
<glyph unicode="&#xd2;" horiz-adv-x="1261" d="M90 510q0 -238 142.5 -384t398.5 -146t398 146t142 384v414q0 238 -142 384t-398 146t-398.5 -146.5t-142.5 -383.5v-414zM291 1749h356l154 -223h-248zM365 510v414q0 123 77.5 190.5t188.5 67.5t188.5 -67.5t77.5 -190.5v-414q0 -123 -78 -190.5t-188 -67.5 q-111 0 -188.5 67.5t-77.5 190.5z" />
<glyph unicode="&#xd3;" horiz-adv-x="1261" d="M90 510q0 -238 142.5 -384t398.5 -146t398 146t142 384v414q0 238 -142 384t-398 146t-398.5 -146.5t-142.5 -383.5v-414zM365 510v414q0 123 77.5 190.5t188.5 67.5t188.5 -67.5t77.5 -190.5v-414q0 -123 -78 -190.5t-188 -67.5q-111 0 -188.5 67.5t-77.5 190.5z M461 1526h248l262 223h-357z" />
<glyph unicode="&#xd4;" horiz-adv-x="1261" d="M90 510q0 -238 142.5 -384t398.5 -146t398 146t142 384v414q0 238 -142 384t-398 146t-398.5 -146.5t-142.5 -383.5v-414zM250 1526l268 223h225l269 -223h-291l-90 71l-90 -71h-291zM365 510v414q0 123 77.5 190.5t188.5 67.5t188.5 -67.5t77.5 -190.5v-414 q0 -123 -78 -190.5t-188 -67.5q-111 0 -188.5 67.5t-77.5 190.5z" />
<glyph unicode="&#xd5;" horiz-adv-x="1261" d="M90 510q0 -238 142.5 -384t398.5 -146t398 146t142 384v414q0 238 -142 384t-398 146t-398.5 -146.5t-142.5 -383.5v-414zM262 1507h213q10 29 27.5 44.5t38.5 15.5q8 0 17 -2t20 -6l55 -27q33 -16 60.5 -22.5t64.5 -6.5q104 0 163.5 80t79.5 186h-213q-10 -29 -27.5 -44 t-37.5 -15q-8 0 -17.5 2t-19.5 6l-55 27q-33 16 -60.5 22.5t-64.5 6.5q-104 0 -163.5 -80t-80.5 -187zM365 510v414q0 123 77.5 190.5t188.5 67.5t188.5 -67.5t77.5 -190.5v-414q0 -123 -78 -190.5t-188 -67.5q-111 0 -188.5 67.5t-77.5 190.5z" />
<glyph unicode="&#xd6;" horiz-adv-x="1261" d="M90 510q0 -238 142.5 -384t398.5 -146t398 146t142 384v414q0 238 -142 384t-398 146t-398.5 -146.5t-142.5 -383.5v-414zM293 1518h274v239h-274v-239zM365 510v414q0 123 77.5 190.5t188.5 67.5t188.5 -67.5t77.5 -190.5v-414q0 -123 -78 -190.5t-188 -67.5 q-111 0 -188.5 67.5t-77.5 190.5zM694 1518h275v239h-275v-239z" />
<glyph unicode="&#xd7;" d="M104 281l175 -175l292 293l295 -293l174 175l-295 292l295 295l-174 174l-295 -294l-292 294l-175 -174l293 -295z" />
<glyph unicode="&#xd8;" horiz-adv-x="1273" d="M96 12l156 -98l84 137q61 -35 137 -53t164 -18q256 0 398.5 146t142.5 384v414q0 100 -26 185t-75 151l101 161l-154 101l-86 -140q-61 33 -137 52.5t-164 19.5q-256 0 -398.5 -146.5t-142.5 -383.5v-414q0 -100 24.5 -185t74.5 -151zM371 485.5v24.5v414 q0 123 77.5 190.5t188.5 67.5q43 0 82 -10.5t72 -30.5l-418 -678q-2 10 -2 22.5zM483 291l416 678q2 -10 3 -21.5t1 -23.5v-414q0 -123 -77.5 -190.5t-188.5 -67.5q-43 0 -82 9t-72 30z" />
<glyph unicode="&#xd9;" horiz-adv-x="1310" d="M115 510q0 -238 142 -384t398 -146t398.5 146t142.5 384v924h-274v-924q0 -123 -78 -190.5t-189 -67.5t-188.5 67.5t-77.5 190.5v924h-274v-924zM315 1749h357l153 -223h-247z" />
<glyph unicode="&#xda;" horiz-adv-x="1310" d="M115 510q0 -238 142 -384t398 -146t398.5 146t142.5 384v924h-274v-924q0 -123 -78 -190.5t-189 -67.5t-188.5 67.5t-77.5 190.5v924h-274v-924zM485 1526h248l262 223h-356z" />
<glyph unicode="&#xdb;" horiz-adv-x="1310" d="M115 510q0 -238 142 -384t398 -146t398.5 146t142.5 384v924h-274v-924q0 -123 -78 -190.5t-189 -67.5t-188.5 67.5t-77.5 190.5v924h-274v-924zM274 1526l269 223h225l268 -223h-291l-90 71l-90 -71h-291z" />
<glyph unicode="&#xdc;" horiz-adv-x="1310" d="M115 510q0 -238 142 -384t398 -146t398.5 146t142.5 384v924h-274v-924q0 -123 -78 -190.5t-189 -67.5t-188.5 67.5t-77.5 190.5v924h-274v-924zM317 1518h275v239h-275v-239zM719 1518h274v239h-274v-239z" />
<glyph unicode="&#xdd;" horiz-adv-x="1241" d="M-25 1434l508 -912v-522h275v522l508 912h-312l-333 -598l-334 598h-312zM451 1526h247l263 223h-357z" />
<glyph unicode="&#xde;" horiz-adv-x="1222" d="M133 0h275v221h311q254 0 374.5 151.5t120.5 346.5q0 197 -120.5 346t-374.5 149h-311v220h-275v-1434zM408 494v448h311q113 0 167 -70.5t54 -152.5t-54.5 -153.5t-166.5 -71.5h-311z" />
<glyph unicode="&#xdf;" horiz-adv-x="1132" d="M123 0v1044q0 168 100.5 289t319.5 121q207 0 313.5 -114.5t106.5 -268.5q0 -90 -28 -156.5t-69 -111.5q109 -72 154 -175.5t45 -207.5q0 -168 -110.5 -304t-346.5 -136q-31 0 -60.5 3t-55.5 7v266q23 -16 53 -24.5t63 -8.5q84 0 135.5 59.5t51.5 157.5q0 96 -63.5 155.5 t-164.5 59.5h-75v224h51q70 0 109.5 49t39.5 116q0 68 -40 117t-109 49q-70 0 -110 -42t-40 -109v-1059h-270z" />
<glyph unicode="&#xe0;" d="M84 293q0 -145 102.5 -229t282.5 -84q121 0 189.5 40.5t105.5 100.5v-121h270v600q0 219 -123 352t-348 133q-193 0 -309.5 -97t-149.5 -263h273q20 53 68.5 85t117.5 32q82 0 132 -42t65 -112v-2q-119 -8 -258.5 -24.5t-216.5 -53.5q-111 -51 -156 -125.5t-45 -189.5z M262 1434h352l123 -265h-233zM354 324q0 33 12.5 53t45.5 37q39 20 138 30.5t214 18.5v-35q0 -100 -73 -155.5t-177 -55.5q-90 0 -125 34t-35 73z" />
<glyph unicode="&#xe1;" d="M84 293q0 -145 102.5 -229t282.5 -84q121 0 189.5 40.5t105.5 100.5v-121h270v600q0 219 -123 352t-348 133q-193 0 -309.5 -97t-149.5 -263h273q20 53 68.5 85t117.5 32q82 0 132 -42t65 -112v-2q-119 -8 -258.5 -24.5t-216.5 -53.5q-111 -51 -156 -125.5t-45 -189.5z M354 324q0 33 12.5 53t45.5 37q39 20 138 30.5t214 18.5v-35q0 -100 -73 -155.5t-177 -55.5q-90 0 -125 34t-35 73zM401 1169h234l242 265h-353z" />
<glyph unicode="&#xe2;" d="M84 293q0 -145 102.5 -229t282.5 -84q121 0 189.5 40.5t105.5 100.5v-121h270v600q0 219 -123 352t-348 133q-193 0 -309.5 -97t-149.5 -263h273q20 53 68.5 85t117.5 32q82 0 132 -42t65 -112v-2q-119 -8 -258.5 -24.5t-216.5 -53.5q-111 -51 -156 -125.5t-45 -189.5z M199 1169h280l101 93l98 -93h283l-259 265h-245zM354 324q0 33 12.5 53t45.5 37q39 20 138 30.5t214 18.5v-35q0 -100 -73 -155.5t-177 -55.5q-90 0 -125 34t-35 73z" />
<glyph unicode="&#xe3;" d="M84 293q0 -145 102.5 -229t282.5 -84q121 0 189.5 40.5t105.5 100.5v-121h270v600q0 219 -123 352t-348 133q-193 0 -309.5 -97t-149.5 -263h273q20 53 68.5 85t117.5 32q82 0 132 -42t65 -112v-2q-119 -8 -258.5 -24.5t-216.5 -53.5q-111 -51 -156 -125.5t-45 -189.5z M211 1171h199q12 35 32.5 49.5t34.5 14.5t26.5 -3t22.5 -7l56 -27q33 -16 60.5 -23.5t64.5 -7.5q104 0 163.5 80t79.5 187h-200q-10 -35 -31 -49.5t-35 -14.5t-26.5 3t-22.5 7l-55 27q-33 16 -60.5 23.5t-64.5 7.5q-104 0 -164 -80t-80 -187zM354 324q0 33 12.5 53t45.5 37 q39 20 138 30.5t214 18.5v-35q0 -100 -73 -155.5t-177 -55.5q-90 0 -125 34t-35 73z" />
<glyph unicode="&#xe4;" d="M84 293q0 -145 102.5 -229t282.5 -84q121 0 189.5 40.5t105.5 100.5v-121h270v600q0 219 -123 352t-348 133q-193 0 -309.5 -97t-149.5 -263h273q20 53 68.5 85t117.5 32q82 0 132 -42t65 -112v-2q-119 -8 -258.5 -24.5t-216.5 -53.5q-111 -51 -156 -125.5t-45 -189.5z M244 1182h270v239h-270v-239zM354 324q0 33 12.5 53t45.5 37q39 20 138 30.5t214 18.5v-35q0 -100 -73 -155.5t-177 -55.5q-90 0 -125 34t-35 73zM645 1182h270v239h-270v-239z" />
<glyph unicode="&#xe5;" d="M84 293q0 -145 102.5 -229t282.5 -84q121 0 189.5 40.5t105.5 100.5v-121h270v600q0 219 -123 352t-348 133q-193 0 -309.5 -97t-149.5 -263h273q20 53 68.5 85t117.5 32q82 0 132 -42t65 -112v-2q-119 -8 -258.5 -24.5t-216.5 -53.5q-111 -51 -156 -125.5t-45 -189.5z M354 324q0 33 12.5 53t45.5 37q39 20 138 30.5t214 18.5v-35q0 -100 -73 -155.5t-177 -55.5q-90 0 -125 34t-35 73zM428 1300q0 -63 44 -107t108 -44q63 0 108 44t45 107t-45 108.5t-108 45.5t-107.5 -45t-44.5 -109zM539 1300q0 16 12 28.5t29 12.5q16 0 28.5 -12t12.5 -29 q0 -16 -12.5 -28t-28.5 -12t-28.5 12t-12.5 28z" />
<glyph unicode="&#xe6;" horiz-adv-x="1794" d="M84 293q0 -145 103.5 -229t287.5 -84q135 0 223 59t121 170q53 -106 158.5 -167.5t257.5 -61.5q193 0 310.5 97t150.5 263h-275q-20 -53 -68 -85t-118 -32q-96 0 -148.5 56.5t-52.5 150.5v6h672v164q0 219 -123 352t-348 133q-102 0 -188 -35.5t-148 -105.5 q-61 70 -147 105.5t-189 35.5q-193 0 -309.5 -97t-149.5 -263h273q20 53 68.5 85t117.5 32q82 0 132 -42t65 -114q-119 -8 -258.5 -24.5t-216.5 -53.5q-111 -51 -156 -125.5t-45 -189.5zM354 324q0 33 12.5 53t45.5 37q39 20 138 30.5t214 18.5v-35q0 -100 -73 -155.5 t-177 -55.5q-90 0 -125 34t-35 73zM1034 659q8 82 59.5 132.5t141.5 50.5t141 -50.5t58 -132.5h-400z" />
<glyph unicode="&#xe7;" horiz-adv-x="1101" d="M90 465v135q0 219 123 352t348 133q205 0 326 -110.5t141 -294.5h-270q-12 74 -62.5 118t-134.5 44q-96 0 -148.5 -56.5t-52.5 -150.5v-205q0 -94 52.5 -150.5t148.5 -56.5q84 0 135.5 43t61.5 119h270q-18 -160 -110.5 -264.5t-247.5 -130.5l-74 -314h-266l112 316 q-170 33 -261 158.5t-91 314.5z" />
<glyph unicode="&#xe8;" horiz-adv-x="1120" d="M90 465q0 -219 123 -352t348 -133q193 0 310.5 97t150.5 263h-274q-20 -53 -68.5 -85t-118.5 -32q-96 0 -148.5 56.5t-52.5 150.5v6h672v164q0 219 -123 352t-348 133t-348 -133t-123 -352v-135zM264 1434h352l123 -265h-233zM360 659v3q8 82 59.5 131t141.5 49 t141.5 -49.5t57.5 -130.5v-3h-400z" />
<glyph unicode="&#xe9;" horiz-adv-x="1120" d="M90 465q0 -219 123 -352t348 -133q193 0 310.5 97t150.5 263h-274q-20 -53 -68.5 -85t-118.5 -32q-96 0 -148.5 56.5t-52.5 150.5v6h672v164q0 219 -123 352t-348 133t-348 -133t-123 -352v-135zM360 659v3q8 82 59.5 131t141.5 49t141.5 -49.5t57.5 -130.5v-3h-400z M403 1169h234l242 265h-353z" />
<glyph unicode="&#xea;" horiz-adv-x="1120" d="M90 465q0 -219 123 -352t348 -133q193 0 310.5 97t150.5 263h-274q-20 -53 -68.5 -85t-118.5 -32q-96 0 -148.5 56.5t-52.5 150.5v6h672v164q0 219 -123 352t-348 133t-348 -133t-123 -352v-135zM180 1169h281l100 93l98 -93h283l-258 265h-246zM360 659v3q8 82 59.5 131 t141.5 49t141.5 -49.5t57.5 -130.5v-3h-400z" />
<glyph unicode="&#xeb;" horiz-adv-x="1120" d="M90 465q0 -219 123 -352t348 -133q193 0 310.5 97t150.5 263h-274q-20 -53 -68.5 -85t-118.5 -32q-96 0 -148.5 56.5t-52.5 150.5v6h672v164q0 219 -123 352t-348 133t-348 -133t-123 -352v-135zM225 1182h271v239h-271v-239zM360 659v3q8 82 59.5 131t141.5 49 t141.5 -49.5t57.5 -130.5v-3h-400zM627 1182h270v239h-270v-239z" />
<glyph unicode="&#xec;" horiz-adv-x="516" d="M-39 1434h352l123 -265h-233zM123 0h270v1057h-270v-1057z" />
<glyph unicode="&#xed;" horiz-adv-x="516" d="M100 1169h234l241 265h-352zM123 0h270v1057h-270v-1057z" />
<glyph unicode="&#xee;" horiz-adv-x="638" d="M-61 1169h280l100 93l99 -93h282l-258 265h-245zM184 0h271v1057h-271v-1057z" />
<glyph unicode="&#xef;" horiz-adv-x="598" d="M-37 1182h270v239h-270v-239zM164 0h270v1057h-270v-1057zM365 1182h270v239h-270v-239z" />
<glyph unicode="&#xf0;" horiz-adv-x="1122" d="M90 465v135q0 203 104.5 332t297.5 149l-54 76h-256v164h137l-79 113h327l80 -113h221v-164h-102l170 -235l2 -2q45 -61 69.5 -143.5t24.5 -176.5v-135q0 -219 -123 -352t-348 -133t-348 133t-123 352zM360 430q0 -94 52.5 -150.5t148.5 -56.5t148.5 56.5t52.5 150.5v205 q0 94 -52.5 150.5t-148.5 56.5t-148.5 -56.5t-52.5 -150.5v-205z" />
<glyph unicode="&#xf1;" horiz-adv-x="1173" d="M123 0v1057h270v-92q35 53 106.5 86.5t141.5 33.5q160 0 292 -113.5t132 -344.5v-627h-270v616q0 106 -62.5 155.5t-138.5 49.5t-138.5 -49t-62.5 -156v-616h-270zM225 1171h199q12 35 32.5 49.5t35.5 14.5q14 0 26 -3t23 -7l55 -27q33 -16 60.5 -23.5t64.5 -7.5 q104 0 163.5 80t80.5 187h-201q-10 -35 -30.5 -49.5t-35.5 -14.5q-14 0 -26.5 3t-22.5 7l-55 27q-33 16 -60.5 23.5t-64.5 7.5q-104 0 -163.5 -80t-80.5 -187z" />
<glyph unicode="&#xf2;" horiz-adv-x="1122" d="M90 465q0 -219 123 -352t348 -133t348 133t123 352v135q0 219 -123 352t-348 133t-348 -133t-123 -352v-135zM264 1434h352l123 -265h-233zM360 430v205q0 94 52.5 150.5t148.5 56.5t148.5 -56.5t52.5 -150.5v-205q0 -94 -52.5 -150.5t-148.5 -56.5t-148.5 56.5 t-52.5 150.5z" />
<glyph unicode="&#xf3;" horiz-adv-x="1122" d="M90 465q0 -219 123 -352t348 -133t348 133t123 352v135q0 219 -123 352t-348 133t-348 -133t-123 -352v-135zM360 430v205q0 94 52.5 150.5t148.5 56.5t148.5 -56.5t52.5 -150.5v-205q0 -94 -52.5 -150.5t-148.5 -56.5t-148.5 56.5t-52.5 150.5zM403 1169h234l242 265 h-353z" />
<glyph unicode="&#xf4;" horiz-adv-x="1122" d="M90 465q0 -219 123 -352t348 -133t348 133t123 352v135q0 219 -123 352t-348 133t-348 -133t-123 -352v-135zM180 1169h281l100 93l98 -93h283l-258 265h-246zM360 430v205q0 94 52.5 150.5t148.5 56.5t148.5 -56.5t52.5 -150.5v-205q0 -94 -52.5 -150.5t-148.5 -56.5 t-148.5 56.5t-52.5 150.5z" />
<glyph unicode="&#xf5;" horiz-adv-x="1122" d="M90 465q0 -219 123 -352t348 -133t348 133t123 352v135q0 219 -123 352t-348 133t-348 -133t-123 -352v-135zM193 1171h198q12 35 32.5 49.5t35.5 14.5q14 0 26.5 -3t22.5 -7l55 -27q33 -16 60.5 -23.5t64.5 -7.5q104 0 163.5 80t80.5 187h-201q-10 -35 -30.5 -49.5 t-34.5 -14.5t-26.5 3t-23.5 7l-55 27q-33 16 -60.5 23.5t-64.5 7.5q-104 0 -163.5 -80t-79.5 -187zM360 430v205q0 94 52.5 150.5t148.5 56.5t148.5 -56.5t52.5 -150.5v-205q0 -94 -52.5 -150.5t-148.5 -56.5t-148.5 56.5t-52.5 150.5z" />
<glyph unicode="&#xf6;" horiz-adv-x="1122" d="M90 465q0 -219 123 -352t348 -133t348 133t123 352v135q0 219 -123 352t-348 133t-348 -133t-123 -352v-135zM225 1182h271v239h-271v-239zM360 430v205q0 94 52.5 150.5t148.5 56.5t148.5 -56.5t52.5 -150.5v-205q0 -94 -52.5 -150.5t-148.5 -56.5t-148.5 56.5 t-52.5 150.5zM627 1182h270v239h-270v-239z" />
<glyph unicode="&#xf7;" d="M100 440h942v246h-942v-246zM422 209q0 -61 44 -105.5t105 -44.5t104.5 44t43.5 106q0 61 -43 104t-105 43q-61 0 -105 -43t-44 -104zM422 920q0 -61 44 -105.5t105 -44.5t104.5 44t43.5 106q0 61 -43 104t-105 43q-61 0 -105 -43t-44 -104z" />
<glyph unicode="&#xf8;" horiz-adv-x="1134" d="M96 8l135 -94l86 121q51 -27 114 -41t136 -14q225 0 348 133t123 352v135q0 96 -24.5 178t-71.5 144l96 135l-133 94l-88 -123q-51 27 -113.5 42t-136.5 15q-225 0 -348 -133t-123 -352v-135q0 -96 24.5 -178t69.5 -144zM367 411.5v18.5v205q0 94 52 150.5t148 56.5 q29 0 55.5 -6.5t47.5 -16.5l-301 -426q-2 8 -2 18.5zM465 244l301 426q0 -8 1 -17.5t1 -17.5v-205q0 -94 -52 -150.5t-149 -56.5q-31 0 -56.5 5t-45.5 16z" />
<glyph unicode="&#xf9;" horiz-adv-x="1161" d="M109 438q0 -238 128 -348t275 -110q96 0 159.5 40.5t96.5 94.5v-115h270v1057h-270v-608q0 -104 -60.5 -154.5t-134.5 -50.5t-134 50t-60 155v608h-270v-619zM276 1434h353l123 -265h-234z" />
<glyph unicode="&#xfa;" horiz-adv-x="1161" d="M109 438q0 -238 128 -348t275 -110q96 0 159.5 40.5t96.5 94.5v-115h270v1057h-270v-608q0 -104 -60.5 -154.5t-134.5 -50.5t-134 50t-60 155v608h-270v-619zM416 1169h233l242 265h-352z" />
<glyph unicode="&#xfb;" horiz-adv-x="1161" d="M109 438q0 -238 128 -348t275 -110q96 0 159.5 40.5t96.5 94.5v-115h270v1057h-270v-608q0 -104 -60.5 -154.5t-134.5 -50.5t-134 50t-60 155v608h-270v-619zM193 1169h280l100 93l99 -93h282l-258 265h-245z" />
<glyph unicode="&#xfc;" horiz-adv-x="1161" d="M109 438q0 -238 128 -348t275 -110q96 0 159.5 40.5t96.5 94.5v-115h270v1057h-270v-608q0 -104 -60.5 -154.5t-134.5 -50.5t-134 50t-60 155v608h-270v-619zM238 1182h270v239h-270v-239zM639 1182h270v239h-270v-239z" />
<glyph unicode="&#xfd;" horiz-adv-x="1003" d="M-18 1057l376 -1057l-30 -86q-6 -16 -20.5 -31.5t-51.5 -15.5h-113v-244h201q141 0 180 79t82 198l416 1157h-285l-235 -674l-236 674h-284zM344 1169h234l241 265h-352z" />
<glyph unicode="&#xfe;" horiz-adv-x="1155" d="M123 -377v1811h270v-469q35 53 106.5 86.5t141.5 33.5q160 0 292 -113.5t132 -344.5v-189q0 -231 -132 -344.5t-292 -113.5q-70 0 -141.5 33.5t-106.5 86.5v-477h-270zM393 449q0 -106 62.5 -155.5t138.5 -49.5t138.5 49t62.5 156v167q0 106 -62.5 155.5t-138.5 49.5 t-138.5 -49t-62.5 -156v-167z" />
<glyph unicode="&#xff;" horiz-adv-x="1003" d="M-18 1057l376 -1057l-30 -86q-6 -16 -20.5 -31.5t-51.5 -15.5h-113v-244h201q141 0 180 79t82 198l416 1157h-285l-235 -674l-236 674h-284zM166 1182h270v239h-270v-239zM567 1182h271v239h-271v-239z" />
<glyph unicode="&#x152;" horiz-adv-x="1869" d="M90 510q0 -238 142.5 -384t398.5 -146q92 0 157.5 23.5t108.5 59.5v-63h872v272h-598v316h598v272h-598v301h598v273h-872v-64q-43 37 -108.5 60.5t-157.5 23.5q-256 0 -398.5 -146.5t-142.5 -383.5v-414zM365 510v414q0 123 77.5 190.5t188.5 67.5t188.5 -67.5 t77.5 -190.5v-414q0 -123 -78 -190.5t-188 -67.5q-111 0 -188.5 67.5t-77.5 190.5z" />
<glyph unicode="&#x153;" horiz-adv-x="1792" d="M90 465q0 -219 123 -352t348 -133q106 0 191.5 37.5t144.5 103.5q59 -66 144 -103.5t192 -37.5q193 0 310.5 97t150.5 263h-275q-20 -53 -68 -85t-118 -32q-96 0 -148.5 56.5t-52.5 150.5v6h672v164q0 219 -123 352t-348 133q-106 0 -191.5 -37.5t-144.5 -103.5 q-59 66 -144 103.5t-192 37.5q-225 0 -348 -133t-123 -352v-135zM360 430v205q0 94 52.5 150.5t148.5 56.5t148.5 -56.5t52.5 -150.5v-205q0 -94 -52.5 -150.5t-148.5 -56.5t-148.5 56.5t-52.5 150.5zM1032 659q8 82 59.5 132.5t141.5 50.5t141 -50.5t58 -132.5h-400z" />
<glyph unicode="&#x178;" horiz-adv-x="1241" d="M-25 1434l508 -912v-522h275v522l508 912h-312l-333 -598l-334 598h-312zM283 1518h274v239h-274v-239zM684 1518h274v239h-274v-239z" />
<glyph unicode="&#x2c6;" horiz-adv-x="937" d="M88 1169h281l100 93l98 -93h283l-258 265h-246z" />
<glyph unicode="&#x2dc;" horiz-adv-x="927" d="M94 1171h199q12 35 32.5 49.5t34.5 14.5t26.5 -3t23.5 -7l55 -27q33 -16 60.5 -23.5t64.5 -7.5q104 0 163.5 80t80.5 187h-201q-10 -35 -30.5 -49.5t-35.5 -14.5q-14 0 -26.5 3t-22.5 7l-55 27q-33 16 -60.5 23.5t-64.5 7.5q-104 0 -163.5 -80t-80.5 -187z" />
<glyph unicode="&#x2000;" horiz-adv-x="895" />
<glyph unicode="&#x2001;" horiz-adv-x="1790" />
<glyph unicode="&#x2002;" horiz-adv-x="895" />
<glyph unicode="&#x2003;" horiz-adv-x="1790" />
<glyph unicode="&#x2004;" horiz-adv-x="596" />
<glyph unicode="&#x2005;" horiz-adv-x="447" />
<glyph unicode="&#x2006;" horiz-adv-x="298" />
<glyph unicode="&#x2007;" horiz-adv-x="298" />
<glyph unicode="&#x2008;" horiz-adv-x="223" />
<glyph unicode="&#x2009;" horiz-adv-x="358" />
<glyph unicode="&#x200a;" horiz-adv-x="99" />
<glyph unicode="&#x2010;" horiz-adv-x="757" d="M82 440h594v246h-594v-246z" />
<glyph unicode="&#x2011;" horiz-adv-x="757" d="M82 440h594v246h-594v-246z" />
<glyph unicode="&#x2012;" horiz-adv-x="757" d="M82 440h594v246h-594v-246z" />
<glyph unicode="&#x2013;" horiz-adv-x="1105" d="M82 440h942v246h-942v-246z" />
<glyph unicode="&#x2014;" horiz-adv-x="1753" d="M82 440h1589v246h-1589v-246z" />
<glyph unicode="&#x2018;" horiz-adv-x="544" d="M109 872h327v328h-135l88 234h-192l-88 -234v-328z" />
<glyph unicode="&#x2019;" horiz-adv-x="544" d="M109 1106h135l-88 -234h192l88 234v328h-327v-328z" />
<glyph unicode="&#x201a;" horiz-adv-x="544" d="M109 0h135l-88 -233h192l88 233v328h-327v-328z" />
<glyph unicode="&#x201c;" horiz-adv-x="1036" d="M109 872h327v328h-135l88 234h-192l-88 -234v-328zM600 872h328v328h-135l88 234h-193l-88 -234v-328z" />
<glyph unicode="&#x201d;" horiz-adv-x="1036" d="M109 1106h135l-88 -234h192l88 234v328h-327v-328zM600 1106h135l-88 -234h193l88 234v328h-328v-328z" />
<glyph unicode="&#x201e;" horiz-adv-x="1036" d="M109 0h135l-88 -233h192l88 233v328h-327v-328zM600 0h135l-88 -233h193l88 233v328h-328v-328z" />
<glyph unicode="&#x2022;" horiz-adv-x="1638" d="M475 713q0 -141 101.5 -242.5t242.5 -101.5t242.5 101t101.5 243q0 141 -101 242.5t-243 101.5q-141 0 -242.5 -101.5t-101.5 -242.5z" />
<glyph unicode="&#x2026;" horiz-adv-x="1757" d="M129 0h328v328h-328v-328zM715 0h327v328h-327v-328zM1300 0h328v328h-328v-328z" />
<glyph unicode="&#x202f;" horiz-adv-x="358" />
<glyph unicode="&#x2039;" horiz-adv-x="550" d="M86 442v234l363 317v-331l-117 -103l117 -102v-332z" />
<glyph unicode="&#x203a;" horiz-adv-x="550" d="M102 125l363 317v234l-363 317v-331l117 -103l-117 -102v-332z" />
<glyph unicode="&#x205f;" horiz-adv-x="447" />
<glyph unicode="&#x20ac;" horiz-adv-x="1259" d="M59 784h168v-133h-121l-43 -164h164q6 -227 148.5 -367t392.5 -140q131 0 234.5 39.5t173.5 113.5l-195 184q-37 -45 -93.5 -69.5t-119.5 -24.5q-109 0 -187.5 66.5t-82.5 197.5h381l43 164h-424v133h458l43 164h-501q4 129 82.5 195.5t187.5 66.5q63 0 119.5 -24.5 t93.5 -69.5l195 184q-70 74 -173.5 114t-234.5 40q-250 0 -391 -140t-150 -366h-125z" />
<glyph unicode="&#x2122;" horiz-adv-x="1564" d="M-2 1251h235v-649h191v649h235v183h-661v-183zM735 602h183v479l122 -256h142l123 256v-479h184v832h-184l-193 -400l-194 400h-183v-832z" />
<glyph unicode="&#x25fc;" horiz-adv-x="1054" d="M0 0v1055h1055v-1055h-1055z" />
</font>
</defs>
</svg>
